<?xml version="1.0" standalone="no"?>
<!DOCTYPE svg PUBLIC "-//W3C//DTD SVG 1.1//EN" "http://www.w3.org/Graphics/SVG/1.1/DTD/svg11.dtd" >
<svg xmlns="http://www.w3.org/2000/svg" xmlns:xlink="http://www.w3.org/1999/xlink" version="1.1">
<metadata>
Created by FontForge 20160405 at Sat Dec 22 13:22:13 2018
 By www-data
(c) 2005-2014 HacenType, All Rights Reserved.
</metadata>
<defs>
<font id="HacenAlgeria" horiz-adv-x="1014" >
  <font-face 
    font-family="Hacen Algeria"
    font-weight="400"
    font-stretch="normal"
    units-per-em="2048"
    panose-1="2 0 5 0 0 0 0 0 0 0"
    ascent="1638"
    descent="-410"
    x-height="1102"
    cap-height="1449"
    bbox="-342 -720 2701 2134"
    underline-thickness="150"
    underline-position="-525"
    unicode-range="U+0020-FED8"
  />
<missing-glyph horiz-adv-x="1024" 
d="M100 0v1434h824v-1434h-824zM150 50h724v1334h-724v-1334zM325 1148q31 28 58 43q53 30 112 30q92 0 148 -47.5t56 -127.5q0 -49 -23 -98.5t-87 -129.5q-63 -80 -99 -132t-36 -99q0 -38 24 -133h-32q-35 97 -35 148q0 76 81.5 218t81.5 217q0 57 -33 90t-91 33
q-38 0 -69 -17q-26 -15 -56 -40v45zM389 334l57 58q11 10 20 10q10 0 22 -11l56 -60q9 -11 9 -20q0 -11 -10 -22l-56 -62q-14 -14 -21 -14q-11 0 -20 10l-61 71q-7 9 -7 18q0 10 11 22z" />
    <glyph glyph-name="uniFC5E" unicode="&#x651;&#x64c;" horiz-adv-x="484" arabic-form="isolated" 
d="M396 1846q13 -15 22.5 -33t17.5 -36q11 -32 13 -66v-13q0 -27 -6 -50q-8 -30 -26.5 -50.5t-47.5 -24.5q-9 -1 -17 -1q-13 0 -21 4q-14 7 -31 19q-4 -11 -11 -25t-18.5 -28t-27.5 -25.5t-38 -16.5q-16 -4 -29 -4q-15 0 -27 6q-23 9 -36.5 29t-19 47.5t-5.5 54.5q-1 2 -1 5
q0 23 4 43q4 22 9 33q0 -1 1 -1t4 3q5 4 10.5 10t10.5 10q2 2 3 2t1 -1q-5 -21 -6 -47q-1 -6 -1 -12q0 -20 5 -38q5 -23 19 -37q10 -11 27 -11q6 0 13 1q28 5 41 23t18 40.5t6.5 45.5t6.5 39q0 -1 1 -1q2 0 4 2q3 4 7.5 9t8.5 10q2 2 3 2t2 -1q-1 -7 -1 -15q0 -21 7 -39
q9 -24 26 -37q15 -13 36 -13q1 0 2 1q21 0 43 20q3 7 3 15q0 4 -1 8q-2 13 -8.5 26t-15 25t-17.5 21q11 20 19.5 37.5t17.5 34.5zM425 1928q-7 -12 -21 -28.5t-33 -34t-42 -33t-48 -26t-50 -12.5q-5 -1 -11 -1q-19 0 -37 7q-23 10 -25 27q-1 5 -1 10q0 12 4 26q5 19 11 36
q3 7 3 13q0 8 -5 14q-8 9 -34 9h-2q-29 -1 -91 -18q20 23 46.5 37.5t53.5 18.5q11 2 21 2q15 0 28 -3q23 -6 36 -21q10 -13 10 -34v-6q-2 -26 -24 -62q48 17 89.5 38t75.5 53q-43 9 -63 27t-23 40q-1 5 -1 10q0 17 9 35q11 23 31 41.5t46 30.5q24 10 48 10h4q22 -2 30 -21
q7 -18 7 -40v-3q-1 -24 -6.5 -46.5t-9.5 -31.5l40 -10l-18 -65zM403 2065q-5 5 -12 6.5t-12 1.5h-3q-12 0 -20 -7q-10 -8 -10 -18q-1 -3 -1 -5q0 -7 5 -11q5 -7 14 -12t21.5 -9.5t25.5 -9.5q2 17 2 30q0 11 -2 21.5t-8 14.5v-2z" />
    <glyph glyph-name="uniFC5F" unicode="&#x651;&#x64d;" horiz-adv-x="425" arabic-form="isolated" 
d="M370 2050q12 -15 21.5 -33.5t16.5 -36.5q10 -32 11 -66v-7q0 -30 -7 -56q-9 -29 -28 -49t-48 -24q-7 -1 -14 -1q-15 0 -24 5q-14 7 -31 20q-4 -11 -11.5 -25t-19 -27.5t-28 -24.5t-38.5 -16q-14 -3 -26 -3q-17 0 -30 6q-23 10 -35.5 31t-17.5 48q-5 25 -5 49q0 2 1 5
q0 26 4 48.5t10 32.5q0 -1 1 -1t4 3l10 10t11 10q2 2 3 2t1 -1q-6 -21 -8 -48q-1 -8 -1 -15q0 -19 4 -35q5 -23 19 -37q10 -12 28 -12q5 0 11 1q29 4 42.5 21t19 39.5t7 46t7.5 39.5q0 -1 2 -1q1 0 3 2q4 3 8.5 8.5t8.5 9.5q1 2 3 2q1 0 2 -1q-1 -10 -1 -19q0 -18 5 -34
q8 -25 24 -38.5t37 -13.5q22 0 45 20q4 7 4 15q0 4 -1 8q-2 12 -8 25t-14.5 25.5t-16.5 21.5q11 20 20 37t19 34zM391 1684l-350 -141l33 75l350 141zM381 1579l-350 -141l33 75l350 141z" />
    <glyph glyph-name="uniFC60" unicode="&#x651;&#x64e;" horiz-adv-x="425" arabic-form="isolated" 
d="M398 1823q5 -8 6 -12v-3q0 -3 -1 -6q-1 -4 -1 -8q-1 -1 -1 -2q0 -4 4 -12q12 -32 15 -66v-17q0 -24 -5 -46q-8 -30 -26 -51t-47 -26q-9 -1 -17 -1q-13 0 -22 4q-14 7 -31 18q-4 -11 -10.5 -25.5t-18 -28.5t-27 -25.5t-37.5 -16.5q-21 -6 -38 -6q-10 0 -18 3
q-22 5 -35 19.5t-17.5 35t-4.5 40.5q0 21 4.5 39.5t9.5 29.5q0 -1 1 -1t4 3q4 4 9 10t10 11q3 2 4 2t1 -1q-5 -21 -7 -40q-1 -6 -1 -12q0 -11 3 -20q4 -14 17 -19q7 -3 17 -3q9 0 21 2q28 5 41 23t17.5 40.5t5.5 46t6 39.5q0 -1 1 -1q2 0 4 2q3 4 7 9l8 10q2 2 4 2q1 0 2 -1
q-1 -7 -1 -14q0 -22 8 -40q9 -24 26 -36q15 -12 34 -12h4q21 1 42 21q3 7 3 15q0 4 -1 8q-2 13 -8.5 25.5t-15.5 24.5t-18 21q5 10 14.5 15.5t20 10t20 9.5t15.5 13zM401 1903l-340 -193l17 91l340 193z" />
    <glyph glyph-name="uniFC61" unicode="&#x651;&#x64f;" horiz-adv-x="437" arabic-form="isolated" 
d="M372 1846q13 -15 22.5 -33t17.5 -36q11 -32 13 -66v-13q0 -27 -6 -50q-8 -30 -26.5 -50.5t-47.5 -24.5q-9 -1 -17 -1q-13 0 -21 4q-14 7 -31 19q-4 -11 -11 -25t-18.5 -28t-27.5 -25.5t-38 -16.5q-16 -4 -29 -4q-15 0 -27 6q-23 9 -36.5 29t-19 47.5t-5.5 54.5q-1 2 -1 5
q0 23 4 43q4 22 9 33q0 -1 1 -1t4 3q5 4 10.5 10t10.5 10q2 2 3 2t1 -1q-5 -21 -6 -47q-1 -6 -1 -12q0 -20 5 -38q5 -23 19 -37q10 -11 27 -11q6 0 13 1q28 5 41 23t18 40.5t6.5 45.5t6.5 39q0 -1 1 -1q2 0 4 2q3 4 7.5 9t8.5 10q2 2 3 2t2 -1q-1 -7 -1 -15q0 -21 7 -39
q9 -24 26 -37q15 -13 36 -13q1 0 2 1q21 0 43 20q3 7 3 15q0 4 -1 8q-2 13 -8.5 26t-15 25t-17.5 21q11 20 19.5 37.5t17.5 34.5zM347 1915q-11 -18 -37 -41t-61.5 -43.5t-76.5 -33.5q-36 -12 -72 -12h-11q-57 4 -75 4q-13 0 -13 1t1 1q60 20 103 34t77 28t61.5 31t54.5 43
q-46 8 -67.5 26.5t-24.5 40.5q-1 5 -1 10q0 17 9 35q12 23 33 42t49 31q25 10 51 10h4q23 -1 31 -20q8 -18 8 -41v-2q-1 -25 -7 -48t-10 -33l43 -10l-19 -63zM322 2054q-5 5 -11.5 6.5t-11.5 1.5h-4q-14 0 -22 -7q-10 -8 -11 -19v-3q0 -18 19 -26q21 -10 50 -18q2 16 2 30
q0 11 -2 22t-9 14v-1z" />
    <glyph glyph-name="uniFC62" unicode="&#x651;&#x650;" horiz-adv-x="425" arabic-form="isolated" 
d="M385 1972q12 -15 21.5 -33.5t16.5 -36.5q10 -32 11 -66v-7q0 -30 -7 -56q-9 -29 -28 -49t-48 -24q-7 -1 -14 -1q-15 0 -24 5q-14 7 -31 20q-4 -11 -11.5 -25t-19 -27.5t-28 -24.5t-38.5 -16q-14 -3 -26 -3q-17 0 -30 6q-23 10 -35.5 31t-17.5 48q-5 25 -5 49q0 2 1 5
q0 26 4 48t10 33q0 -1 1 -1t4 3l10 10t11 10q2 2 3 2t1 -1q-6 -21 -8 -48q-1 -8 -1 -15q0 -19 4 -35q5 -23 19 -37q10 -12 28 -12q5 0 11 1q29 4 42.5 21t19 39.5t7 46t7.5 39.5q0 -1 2 -1q1 0 3 2q4 3 8.5 8.5t8.5 9.5q1 2 3 2q1 0 2 -1q-1 -10 -1 -19q0 -18 5 -34
q8 -25 24 -38.5t37 -13.5q22 0 45 20q4 7 4 15q0 4 -1 8q-2 12 -8 25t-14.5 25.5t-16.5 21.5q11 20 20 37t19 34zM422 1590l-340 -193l17 91l340 193z" />
    <glyph glyph-name="afii57409" unicode="&#x621;" horiz-adv-x="812" arabic-form="isolated" 
d="M712 144l-589 -45l-23 150l214 16q-39 51 -80 110t-69.5 120t-36.5 122q-3 14 -3 28q0 45 21 86q16 34 41 59t56.5 42t69 27t78.5 15q38 5 76 5q29 0 59 -3q68 -6 128 -15l-47 -147q-45 8 -93 13q-23 2 -44 2q-23 0 -45 -3q-26 -3 -46 -13t-30 -30t-10 -43q0 -17 6 -36
q12 -46 39.5 -95.5t64 -99.5t69.5 -93q7 -8 13.5 -17t13.5 -17l145 11z" />
    <glyph glyph-name="afii57410" unicode="&#x622;" horiz-adv-x="638" arabic-form="isolated" 
d="M406 1367v-1226h-214v1226h214zM121 1557l417 60l-21 -107l-417 -60z" />
    <glyph glyph-name="afii57411" unicode="&#x623;" horiz-adv-x="523" arabic-form="isolated" 
d="M366 1367v-1226h-214v1226h214zM423 1515l-311 -26l-12 85l89 5q-18 24 -30 39t-16 29q-3 8 -3 17q0 6 1 13q3 15 15 40q14 32 44 46.5t68 19.5q19 2 38 2h25q31 -3 58 -8l-21 -81q-21 4 -43 6q-11 1 -21 1t-20 -1q-36 -4 -41 -15q-2 -4 -2 -9q0 -8 7 -18q9 -16 27 -34
t29 -36l107 10z" />
    <glyph glyph-name="afii57412" unicode="&#x624;" horiz-adv-x="979" arabic-form="isolated" 
d="M878 134q-5 -83 -23 -147t-48 -112t-70 -82.5t-89 -57.5q-49 -24 -102 -37t-109 -19t-115 -7t-119 -1v150q48 0 93.5 0.5t87.5 4.5t78 11.5t65 21.5q28 13 51 35t41 54t29 76.5t15 103.5q-94 1 -168 9.5t-131.5 24.5t-100.5 40t-74 56q-34 35 -52.5 76.5t-27 90
t-9.5 104.5v120q1 73 18.5 133.5t46.5 108t67.5 82t82.5 56.5q80 39 171 39h9q94 0 177 -42q43 -22 81 -55.5t65.5 -79t43.5 -102.5t16 -124v-460l-6 -71h6zM663 665q0 95 -33.5 154.5t-83.5 85.5q-28 13 -54 14q-24 0 -53 -13q-51 -26 -86.5 -89.5t-37.5 -169.5
q-1 -36 -1 -68q0 -17 1 -32q0 -46 5 -84.5t16 -68.5t31 -51q31 -32 101 -48t195 -17v387zM664 1185l-307 -20l-8 107l57 3q-22 29 -33.5 50t-15.5 38q-2 10 -2 19q0 7 1 14q3 15 10 34q10 27 30 48t48 35.5t61.5 21.5t69.5 7q29 0 46.5 -2.5t34.5 -6.5l-18 -104
q-39 14 -68 14q-11 0 -21 -2q-36 -7 -48 -37q-7 -16 -7 -33q0 -13 5 -26q9 -30 50 -57l120 11z" />
    <glyph glyph-name="afii57413" unicode="&#x625;" horiz-adv-x="523" arabic-form="isolated" 
d="M372 1367v-1226h-214v1226h214zM423 -229l-311 -26l-12 85l89 5q-18 24 -30 39t-16 29q-3 8 -3 17q0 6 1 13q3 15 15 40q14 32 44 46.5t68 19.5q19 2 38 2h25q31 -3 58 -8l-21 -81q-21 4 -43 6q-11 1 -21 1t-20 -1q-36 -4 -41 -15q-2 -4 -2 -9q0 -8 7 -18q9 -16 27 -34
t29 -36l107 10z" />
    <glyph glyph-name="afii57414" unicode="&#x626;" horiz-adv-x="1370" arabic-form="isolated" 
d="M1187 877q-50 11 -90 11h-14q-49 0 -92 -12q-50 -15 -89 -41q-42 -28 -70 -67t-39 -87q88 -23 158.5 -55t124.5 -70.5t92 -81.5t61 -89q24 -48 33 -96q4 -28 4 -56q0 -20 -2 -40q-5 -48 -24 -93t-51 -87q-36 -47 -86 -85.5t-113 -66t-138 -41.5q-66 -13 -140 -13h-20
q-26 1 -50.5 3t-49.5 7q-94 17 -179 59.5t-148 113.5q-60 66 -93 155q-31 82 -31 184v19q1 27 3 54t7 54l214 -17q-5 -26 -7 -49t-3 -44v-14q0 -82 23 -145q24 -69 69 -117q39 -45 90 -71t107 -36q14 -2 27.5 -3.5t27.5 -1.5h16q93 0 164 33q77 36 121 93q42 54 50 121
q2 13 2 27q0 19 -3 38q-6 33 -23 65q-18 35 -49.5 68t-78 62t-108.5 52.5t-141 39.5l-78 15l1 58q0 19 2.5 37t6.5 35q17 74 61.5 135.5t110.5 106.5q70 47 159 72q82 22 177 22h15q73 -2 149 -18zM415 664l-307 -20l-8 107l57 3q-22 29 -33.5 50t-15.5 38q-2 10 -2 19
q0 7 1 14q3 15 10 34q10 27 30 48t48 35.5t61.5 21.5t69.5 7q29 0 46.5 -2.5t34.5 -6.5l-18 -104q-39 14 -68 14q-11 0 -21 -2q-36 -7 -48 -37q-7 -16 -7 -33q0 -13 5 -26q9 -30 50 -57l120 11z" />
    <glyph glyph-name="afii57415" unicode="&#x627;" horiz-adv-x="414" arabic-form="isolated" 
d="M314 1367v-1226h-214v1226h214z" />
    <glyph glyph-name="afii57416" unicode="&#x628;" horiz-adv-x="1443" arabic-form="isolated" 
d="M623 -169q0 23 9 43t24 35t34.5 23.5t41.5 8.5t42 -8.5t35 -23.5t23.5 -35t8.5 -43t-8.5 -42.5t-23.5 -34t-35 -23t-42 -8.5t-41.5 8.5t-34.5 23t-24 34t-9 42.5zM315 768v-370q0 -29 10 -52.5t27 -40.5q24 -24 48 -24h645q23 0 47 24q17 17 27 40.5t10 52.5v577h214
v-577q0 -52 -20.5 -98t-55.5 -81q-41 -42 -98 -65.5t-125 -23.5h-643q-69 0 -126 23.5t-98 65.5q-35 35 -55.5 81t-20.5 98h-1v370h215z" />
    <glyph glyph-name="afii57417" unicode="&#x629;" horiz-adv-x="979" arabic-form="isolated" 
d="M878 398q0 -52 -20.5 -98t-55.5 -81q-42 -42 -98.5 -65.5t-125.5 -23.5q-140 4 -237.5 38.5t-151.5 89.5q-34 35 -52.5 76.5t-27 90t-9.5 104.5v38q0 39 1 82q1 73 18.5 133.5t46.5 108t67.5 82t82.5 56.5q42 20 87 30q41 9 83 9h9q94 0 177 -42q43 -22 81 -55.5
t65.5 -79t43.5 -102.5t16 -124v-267zM315 647q-1 -36 -1 -68q0 -17 1 -32q0 -46 5 -84.5t16 -68.5t31 -51q16 -17 47.5 -31.5t74.5 -22.5q16 -3 34.5 -6t36.5 -3t35.5 5.5t31.5 19.5q17 17 27 40.5t10 52.5h-1v267q0 95 -33.5 154.5t-82.5 85.5q-30 13 -55 14q-24 0 -53 -13
q-25 -13 -47 -35t-39 -54.5t-27 -74.5t-11 -95zM513 1364q0 23 9 43t24 35t35 23.5t43 8.5q22 0 41.5 -8.5t34 -23.5t23 -35t8.5 -43t-8.5 -42.5t-23 -34t-34 -23t-41.5 -8.5q-23 0 -43 8.5t-35 23t-24 34t-9 42.5zM252 1364q0 23 9 43t24 35t34.5 23.5t41.5 8.5t42 -8.5
t35 -23.5t23.5 -35t8.5 -43t-8.5 -42.5t-23.5 -34t-35 -23t-42 -8.5t-41.5 8.5t-34.5 23t-24 34t-9 42.5z" />
    <glyph glyph-name="afii57418" unicode="&#x62a;" horiz-adv-x="1443" arabic-form="isolated" 
d="M742 1190q0 23 9 43t24 35t35 23.5t43 8.5q22 0 41.5 -8.5t34 -23.5t23 -35t8.5 -43t-8.5 -42.5t-23 -34t-34 -23t-41.5 -8.5q-23 0 -43 8.5t-35 23t-24 34t-9 42.5zM481 1190q0 23 9 43t24 35t34.5 23.5t41.5 8.5t42 -8.5t35 -23.5t23.5 -35t8.5 -43t-8.5 -42.5
t-23.5 -34t-35 -23t-42 -8.5t-41.5 8.5t-34.5 23t-24 34t-9 42.5zM315 768v-370q0 -29 10 -52.5t27 -40.5q24 -24 48 -24h645q23 0 47 24q17 17 27 40.5t10 52.5v577h214v-577q0 -52 -20.5 -98t-55.5 -81q-41 -42 -98 -65.5t-125 -23.5h-643q-69 0 -126 23.5t-98 65.5
q-35 35 -55.5 81t-20.5 98h-1v370h215z" />
    <glyph glyph-name="afii57419" unicode="&#x62b;" horiz-adv-x="1443" arabic-form="isolated" 
d="M771 1200q0 23 9 43t24 35t35 23.5t43 8.5q22 0 41.5 -8.5t34 -23.5t23 -35t8.5 -43t-8.5 -42.5t-23 -34t-34 -23t-41.5 -8.5q-23 0 -43 8.5t-35 23t-24 34t-9 42.5zM607 1458q0 23 9 43t24 35t34.5 23.5t41.5 8.5t42 -8.5t35 -23.5t23.5 -35t8.5 -43t-8.5 -42.5
t-23.5 -34t-35 -23t-42 -8.5t-41.5 8.5t-34.5 23t-24 34t-9 42.5zM442 1200q0 23 9 43t24 35t34.5 23.5t41.5 8.5t42 -8.5t35 -23.5t23.5 -35t8.5 -43t-8.5 -42.5t-23.5 -34t-35 -23t-42 -8.5t-41.5 8.5t-34.5 23t-24 34t-9 42.5zM315 768v-370q0 -29 10 -52.5t27 -40.5
q24 -24 48 -24h645q23 0 47 24q17 17 27 40.5t10 52.5v577h214v-577q0 -52 -20.5 -98t-55.5 -81q-41 -42 -98 -65.5t-125 -23.5h-643q-69 0 -126 23.5t-98 65.5q-35 35 -55.5 81t-20.5 98h-1v370h215z" />
    <glyph glyph-name="afii57420" unicode="&#x62c;" horiz-adv-x="1135" arabic-form="isolated" 
d="M265 1041q101 22 185 22q13 0 26 -1q94 -4 167.5 -32t130 -78.5t98.5 -119.5q60 -97 94 -225t58 -274q4 -24 4 -43q0 -13 -2 -23q-5 -25 -19.5 -36t-34.5 -12h-7q-17 0 -35 4q-23 4 -45 10.5t-40 10.5q-25 5 -55.5 9.5t-64.5 7.5q-36 3 -74 4h-14q-32 0 -61 -3
q-37 -5 -71 -15t-62 -29q-54 -31 -86 -81t-40 -108q-3 -20 -3 -39q0 -53 22 -103q14 -33 37 -62.5t57 -52.5q35 -24 82 -41t107 -23q35 -4 76 -4q27 0 58 2q73 4 161 23l62 -143q-121 -26 -225 -31q-31 -1 -60 -1q-70 0 -131 8q-87 12 -157 39t-124 65t-91 82.5t-58 95.5
q-21 48 -27 99q-3 22 -3 45q0 28 4 56q12 86 63 162.5t138 126.5q32 20 64.5 33.5t62 21.5t53.5 12.5t39 6.5q54 8 110 8h28q70 -3 133 -11q-20 110 -48 204t-72 165q-25 40 -57.5 70t-75 46.5t-95.5 19.5h-17q-47 0 -104 -12zM545 -21q0 23 9 43t24 35t34.5 23.5t41.5 8.5
t42 -8.5t35 -23.5t23.5 -35t8.5 -43t-8.5 -42.5t-23.5 -34t-35 -23t-42 -8.5t-41.5 8.5t-34.5 23t-24 34t-9 42.5z" />
    <glyph glyph-name="afii57421" unicode="&#x62d;" horiz-adv-x="1135" arabic-form="isolated" 
d="M269 1041q101 22 185 22q13 0 26 -1q94 -4 167.5 -32t130 -78.5t98.5 -119.5q60 -97 94 -225t58 -274q4 -24 4 -43q0 -13 -2 -23q-5 -25 -19.5 -36t-34.5 -12h-7q-17 0 -35 4q-23 4 -45 10.5t-40 10.5q-25 5 -55.5 9.5t-64.5 7.5q-36 3 -74 4h-14q-32 0 -61 -3
q-37 -5 -71 -15t-62 -29q-54 -31 -86 -81t-40 -108q-3 -20 -3 -39q0 -53 22 -103q14 -33 37 -62.5t57 -52.5q35 -24 82 -41t107 -23q35 -4 76 -4q27 0 58 2q73 4 161 23l62 -143q-121 -26 -225 -31q-31 -1 -60 -1q-70 0 -131 8q-87 12 -157 39t-124 65t-91 82.5t-58 95.5
q-21 48 -27 99q-3 22 -3 45q0 28 4 56q12 86 63 162.5t138 126.5q32 20 64.5 33.5t62 21.5t53.5 12.5t39 6.5q54 8 110 8h28q70 -3 133 -11q-20 110 -48 204t-72 165q-25 40 -57.5 70t-75 46.5t-95.5 19.5h-17q-47 0 -104 -12z" />
    <glyph glyph-name="afii57422" unicode="&#x62e;" horiz-adv-x="1135" arabic-form="isolated" 
d="M269 1041q101 22 185 22q13 0 26 -1q94 -4 167.5 -32t130 -78.5t98.5 -119.5q60 -97 94 -225t58 -274q4 -24 4 -43q0 -13 -2 -23q-5 -25 -19.5 -36t-34.5 -12h-7q-17 0 -35 4q-23 4 -45 10.5t-40 10.5q-25 5 -55.5 9.5t-64.5 7.5q-36 3 -74 4h-14q-32 0 -61 -3
q-37 -5 -71 -15t-62 -29q-54 -31 -86 -81t-40 -108q-3 -20 -3 -39q0 -53 22 -103q14 -33 37 -62.5t57 -52.5q35 -24 82 -41t107 -23q35 -4 76 -4q27 0 58 2q73 4 161 23l62 -143q-121 -26 -225 -31q-31 -1 -60 -1q-70 0 -131 8q-87 12 -157 39t-124 65t-91 82.5t-58 95.5
q-21 48 -27 99q-3 22 -3 45q0 28 4 56q12 86 63 162.5t138 126.5q32 20 64.5 33.5t62 21.5t53.5 12.5t39 6.5q54 8 110 8h28q70 -3 133 -11q-20 110 -48 204t-72 165q-25 40 -57.5 70t-75 46.5t-95.5 19.5h-17q-47 0 -104 -12zM395 1318q0 23 9 43t24 35t34.5 23.5t41.5 8.5
t42 -8.5t35 -23.5t23.5 -35t8.5 -43t-8.5 -42.5t-23.5 -34t-35 -23t-42 -8.5t-41.5 8.5t-34.5 23t-24 34t-9 42.5z" />
    <glyph glyph-name="afii57423" unicode="&#x62f;" horiz-adv-x="895" arabic-form="isolated" 
d="M250 1069l3 -1l-1 1h-1q0 1 3 1q27 -1 66.5 -4t85.5 -14.5t95 -33t95 -60t85.5 -97t66 -142t37.5 -195.5q4 -51 4 -108q0 -70 -7 -151l-3 -37q-27 -13 -50.5 -23t-47.5 -19t-51.5 -17t-61.5 -15q-56 -11 -115 -16q-50 -4 -100 -4h-20q-61 1 -120 8.5t-113 20.5l71 142
q78 -20 168 -21q7 -1 15 -1q81 0 155 15q17 5 32.5 8t29.5 9q4 58 4 108q0 79 -9 141q-14 102 -43.5 169t-68.5 104t-78.5 55.5t-75 22.5t-57.5 5q-15 0 -26.5 1t-25.5 4z" />
    <glyph glyph-name="afii57424" unicode="&#x630;" horiz-adv-x="895" arabic-form="isolated" 
d="M250 1069l3 -1l-1 1h-1q0 1 3 1q27 -1 66.5 -4t85.5 -14.5t95 -33t95 -60t85.5 -97t66 -142t37.5 -195.5q4 -51 4 -108q0 -70 -7 -151l-3 -37q-27 -13 -50.5 -23t-47.5 -19t-51.5 -17t-61.5 -15q-56 -11 -115 -16q-50 -4 -100 -4h-20q-61 1 -120 8.5t-113 20.5l71 142
q78 -20 168 -21q7 -1 15 -1q81 0 155 15q17 5 32.5 8t29.5 9q4 58 4 108q0 79 -9 141q-14 102 -43.5 169t-68.5 104t-78.5 55.5t-75 22.5t-57.5 5q-15 0 -26.5 1t-25.5 4zM353 1356q0 23 9 43t24 35t34.5 23.5t41.5 8.5t42 -8.5t35 -23.5t23.5 -35t8.5 -43t-8.5 -42.5
t-23.5 -34t-35 -23t-42 -8.5t-41.5 8.5t-34.5 23t-24 34t-9 42.5z" />
    <glyph glyph-name="afii57425" unicode="&#x631;" horiz-adv-x="629" arabic-form="isolated" 
d="M529 977v-843q-5 -83 -23 -147t-47.5 -112t-70 -82.5t-89.5 -57.5q-49 -24 -102 -37t-109 -19t-114.5 -7t-118.5 -1v150q48 0 93.5 0.5t87 4.5t77.5 11.5t65 21.5q28 13 52 35.5t41.5 56t28.5 79t14 106.5v841h215z" />
    <glyph glyph-name="afii57426" unicode="&#x632;" horiz-adv-x="629" arabic-form="isolated" 
d="M529 977v-843q-5 -83 -23 -147t-47.5 -112t-70 -82.5t-89.5 -57.5q-49 -24 -102 -37t-109 -19t-114.5 -7t-118.5 -1v150q48 0 93.5 0.5t87 4.5t77.5 11.5t65 21.5q28 13 52 35.5t41.5 56t28.5 79t14 106.5v841h215zM299 1325q0 23 9 43t24 35t34.5 23.5t41.5 8.5t42 -8.5
t35 -23.5t23.5 -35t8.5 -43t-8.5 -42.5t-23.5 -34t-35 -23t-42 -8.5t-41.5 8.5t-34.5 23t-24 34t-9 42.5z" />
    <glyph glyph-name="afii57427" unicode="&#x633;" horiz-adv-x="2079" arabic-form="isolated" 
d="M1979 398q0 -52 -20.5 -98t-55.5 -81q-42 -42 -98.5 -65.5t-125.5 -23.5h-92q-57 0 -105.5 16t-86.5 45q-39 -29 -87.5 -45t-105.5 -16h-97q-45 0 -87 11v-11q-5 -92 -29 -161t-60.5 -119.5t-81.5 -84.5t-91 -54q-41 -18 -82 -27q-20 -5 -40 -7t-40 -3h-59q-34 1 -73 7.5
t-81.5 20.5t-84.5 40q-38 23 -71.5 56.5t-60 81.5t-43.5 111t-21 145v624h214v-620q3 -63 14 -110t27.5 -81.5t38 -57.5t44.5 -37q19 -11 39 -17.5t38.5 -9.5t35.5 -3h30q6 0 13 1t15 3q9 2 17.5 4.5t16.5 5.5q28 12 55.5 35t50 59t38 87.5t18.5 120.5v837h215v-579
q0 -10 -1 -15q2 -23 12 -43t25 -35q24 -24 48 -24h99q24 0 48 24q15 15 25 35t12 43q-1 5 -1 15v579h215v-594q4 -47 36 -78q24 -24 48 -24h94q24 0 48 24q17 17 27 40.5t10 52.5h-1v579h215v-579z" />
    <glyph glyph-name="afii57428" unicode="&#x634;" horiz-adv-x="2079" arabic-form="isolated" 
d="M1979 398q0 -52 -20.5 -98t-55.5 -81q-42 -42 -98.5 -65.5t-125.5 -23.5h-92q-57 0 -105.5 16t-86.5 45q-39 -29 -87.5 -45t-105.5 -16h-97q-45 0 -87 11v-11q-5 -92 -29 -161t-60.5 -119.5t-81.5 -84.5t-91 -54q-41 -18 -82 -27q-20 -5 -40 -7t-40 -3h-59q-34 1 -73 7.5
t-81.5 20.5t-84.5 40q-38 23 -71.5 56.5t-60 81.5t-43.5 111t-21 145v624h214v-620q3 -63 14 -110t27.5 -81.5t38 -57.5t44.5 -37q19 -11 39 -17.5t38.5 -9.5t35.5 -3h30q6 0 13 1t15 3q9 2 17.5 4.5t16.5 5.5q28 12 55.5 35t50 59t38 87.5t18.5 120.5v837h215v-579
q0 -10 -1 -15q2 -23 12 -43t25 -35q24 -24 48 -24h99q24 0 48 24q15 15 25 35t12 43q-1 5 -1 15v579h215v-594q4 -47 36 -78q24 -24 48 -24h94q24 0 48 24q17 17 27 40.5t10 52.5h-1v579h215v-579zM1458 1200q0 23 9 43t24 35t35 23.5t43 8.5q22 0 41.5 -8.5t34 -23.5
t23 -35t8.5 -43t-8.5 -42.5t-23 -34t-34 -23t-41.5 -8.5q-23 0 -43 8.5t-35 23t-24 34t-9 42.5zM1294 1458q0 23 9 43t24 35t34.5 23.5t41.5 8.5t42 -8.5t35 -23.5t23.5 -35t8.5 -43t-8.5 -42.5t-23.5 -34t-35 -23t-42 -8.5t-41.5 8.5t-34.5 23t-24 34t-9 42.5zM1129 1200
q0 23 9 43t24 35t34.5 23.5t41.5 8.5t42 -8.5t35 -23.5t23.5 -35t8.5 -43t-8.5 -42.5t-23.5 -34t-35 -23t-42 -8.5t-41.5 8.5t-34.5 23t-24 34t-9 42.5z" />
    <glyph glyph-name="afii57429" unicode="&#x635;" horiz-adv-x="2046" arabic-form="isolated" 
d="M1018 130q-5 -92 -29 -161t-60.5 -119.5t-81.5 -84.5t-91 -54q-41 -18 -82 -27q-20 -5 -40 -7t-40 -3h-59q-34 1 -73 7.5t-81.5 20.5t-84.5 40q-38 23 -71.5 56.5t-60 81.5t-43.5 111t-21 145v624l214 -3v-617q3 -63 14 -110t27.5 -81.5t38 -57.5t44.5 -37
q19 -11 39 -17.5t38.5 -9.5t35.5 -3h30q6 0 13 1t15 3q9 2 17.5 4.5t16.5 5.5q28 12 55.5 35t50 59t38 87.5t18.5 120.5v839h214v-122l1 1q72 111 157 143q58 23 118.5 35.5t122.5 16.5q19 1 38 1q43 0 87 -5q61 -7 118 -27q60 -20 111 -53t88.5 -79t60 -106t24.5 -135v-18
q0 -8 1 -16v-217q0 -52 -20.5 -98t-55.5 -81q-41 -42 -98 -65.5t-125 -23.5h-629zM1019 281h629q23 0 47 24q17 17 27 40.5t10 52.5v202q0 11 -0.5 22.5t-0.5 23.5q-2 50 -14.5 89.5t-34.5 69.5t-51 50t-63 32q-30 10 -64 14q-23 3 -46 3q-12 0 -24 -1q-38 -2 -77 -10.5
t-77 -23.5q-53 -20 -100.5 -51.5t-83 -73.5t-56.5 -93.5t-21 -111.5v-258z" />
    <glyph glyph-name="afii57430" unicode="&#x636;" horiz-adv-x="2046" arabic-form="isolated" 
d="M1018 130q-5 -92 -29 -161t-60.5 -119.5t-81.5 -84.5t-91 -54q-41 -18 -82 -27q-20 -5 -40 -7t-40 -3h-59q-34 1 -73 7.5t-81.5 20.5t-84.5 40q-38 23 -71.5 56.5t-60 81.5t-43.5 111t-21 145v624l214 -3v-617q3 -63 14 -110t27.5 -81.5t38 -57.5t44.5 -37
q19 -11 39 -17.5t38.5 -9.5t35.5 -3h30q6 0 13 1t15 3q9 2 17.5 4.5t16.5 5.5q28 12 55.5 35t50 59t38 87.5t18.5 120.5v839h214v-122l1 1q72 111 157 143q58 23 118.5 35.5t122.5 16.5q19 1 38 1q43 0 87 -5q61 -7 118 -27q60 -20 111 -53t88.5 -79t60 -106t24.5 -135v-18
q0 -8 1 -16v-217q0 -52 -20.5 -98t-55.5 -81q-41 -42 -98 -65.5t-125 -23.5h-629zM1019 281h629q23 0 47 24q17 17 27 40.5t10 52.5v202q0 11 -0.5 22.5t-0.5 23.5q-2 50 -14.5 89.5t-34.5 69.5t-51 50t-63 32q-30 10 -64 14q-23 3 -46 3q-12 0 -24 -1q-38 -2 -77 -10.5
t-77 -23.5q-53 -20 -100.5 -51.5t-83 -73.5t-56.5 -93.5t-21 -111.5v-258zM1131 1350q0 23 9 43t24 35t34.5 23.5t41.5 8.5t42 -8.5t35 -23.5t23.5 -35t8.5 -43t-8.5 -42.5t-23.5 -34t-35 -23t-42 -8.5t-41.5 8.5t-34.5 23t-24 34t-9 42.5z" />
    <glyph glyph-name="afii57431" unicode="&#x637;" horiz-adv-x="1489" arabic-form="isolated" 
d="M536 130v-2q-29 -1 -58 -1q-15 0 -30 1q-46 0 -95 2h-253v151h64q23 0 47 24q17 17 27 40.5t10 52.5v972h215v-512q72 111 157 143q58 23 118.5 35.5t122.5 16.5q19 1 38 1q43 0 87 -5q61 -7 118 -27q60 -20 111 -53t88.5 -79t60 -106t24.5 -135v-18q0 -8 1 -16v-217
q0 -52 -20.5 -98t-55.5 -81q-41 -42 -98 -65.5t-125 -23.5h-554zM462 394q0 -30 -7.5 -58.5t-21.5 -54.5h658q23 0 47 24q17 17 27 40.5t10 52.5v202q0 11 -0.5 22.5t-0.5 23.5q-2 50 -14.5 89.5t-34.5 69.5t-51 50t-63 32q-30 10 -64 14q-23 3 -46 3q-12 0 -24 -1
q-38 -2 -77 -10.5t-77 -23.5q-53 -20 -100.5 -51.5t-82.5 -73.5t-55.5 -93.5t-20.5 -111.5v-145h-2z" />
    <glyph glyph-name="afii57432" unicode="&#x638;" horiz-adv-x="1489" arabic-form="isolated" 
d="M536 130v-2q-29 -1 -58 -1q-15 0 -30 1q-46 0 -95 2h-253v151h64q23 0 47 24q17 17 27 40.5t10 52.5v972h215v-512q72 111 157 143q58 23 118.5 35.5t122.5 16.5q19 1 38 1q43 0 87 -5q61 -7 118 -27q60 -20 111 -53t88.5 -79t60 -106t24.5 -135v-18q0 -8 1 -16v-217
q0 -52 -20.5 -98t-55.5 -81q-41 -42 -98 -65.5t-125 -23.5h-554zM462 394q0 -30 -7.5 -58.5t-21.5 -54.5h658q23 0 47 24q17 17 27 40.5t10 52.5v202q0 11 -0.5 22.5t-0.5 23.5q-2 50 -14.5 89.5t-34.5 69.5t-51 50t-63 32q-30 10 -64 14q-23 3 -46 3q-12 0 -24 -1
q-38 -2 -77 -10.5t-77 -23.5q-53 -20 -100.5 -51.5t-82.5 -73.5t-55.5 -93.5t-20.5 -111.5v-145h-2zM676 1331q0 23 9 43t24 35t34.5 23.5t41.5 8.5t42 -8.5t35 -23.5t23.5 -35t8.5 -43t-8.5 -42.5t-23.5 -34t-35 -23t-42 -8.5t-41.5 8.5t-34.5 23t-24 34t-9 42.5z" />
    <glyph glyph-name="afii57433" unicode="&#x639;" horiz-adv-x="1113" arabic-form="isolated" 
d="M328 347q-18 29 -35 61.5t-30 69.5t-21 79t-8 89v2q3 108 37 186.5t88.5 129.5t124 76t143.5 25h1q72 0 140.5 -26t122 -76.5t86.5 -125.5t33 -174h-215q0 58 -14.5 105t-38 79.5t-54 50t-63.5 17.5h-1q-30 0 -60.5 -16.5t-55.5 -49.5t-41.5 -84t-18.5 -120v-1
q0 -72 23.5 -130.5t52.5 -106.5q27 5 57.5 6t59.5 1q63 0 123.5 -6.5t111 -15t86.5 -17.5t51 -13l-92 -136q-11 3 -38 9.5t-64 13t-82 11.5t-92 5q-27 0 -55 -2t-53.5 -7.5t-48 -13.5t-38.5 -20l-7 -4q-63 -36 -96 -97t-33 -130q0 -54 21 -105.5t67 -92t118.5 -65
t175.5 -24.5q48 0 102 5.5t116 19.5l62 -143q-158 -33 -285 -33q-134 0 -236.5 31t-175.5 82q-92 64 -135.5 148t-43.5 175q0 52 14.5 104.5t43.5 99.5t71.5 86.5t98.5 67.5z" />
    <glyph glyph-name="afii57434" unicode="&#x63a;" horiz-adv-x="1113" arabic-form="isolated" 
d="M328 347q-18 29 -35 61.5t-30 69.5t-21 79t-8 89v2q3 108 37 186.5t88.5 129.5t124 76t143.5 25h1q72 0 140.5 -26t122 -76.5t86.5 -125.5t33 -174h-215q0 58 -14.5 105t-38 79.5t-54 50t-63.5 17.5h-1q-30 0 -60.5 -16.5t-55.5 -49.5t-41.5 -84t-18.5 -120v-1
q0 -72 23.5 -130.5t52.5 -106.5q27 5 57.5 6t59.5 1q63 0 123.5 -6.5t111 -15t86.5 -17.5t51 -13l-92 -136q-11 3 -38 9.5t-64 13t-82 11.5t-92 5q-27 0 -55 -2t-53.5 -7.5t-48 -13.5t-38.5 -20l-7 -4q-63 -36 -96 -97t-33 -130q0 -54 21 -105.5t67 -92t118.5 -65
t175.5 -24.5q48 0 102 5.5t116 19.5l62 -143q-158 -33 -285 -33q-134 0 -236.5 31t-175.5 82q-92 64 -135.5 148t-43.5 175q0 52 14.5 104.5t43.5 99.5t71.5 86.5t98.5 67.5zM517 1331q0 23 9 43t24 35t34.5 23.5t41.5 8.5t42 -8.5t35 -23.5t23.5 -35t8.5 -43t-8.5 -42.5
t-23.5 -34t-35 -23t-42 -8.5t-41.5 8.5t-34.5 23t-24 34t-9 42.5z" />
    <glyph glyph-name="afii57441" unicode="&#x641;" horiz-adv-x="1444" arabic-form="isolated" 
d="M315 398q0 -29 10 -52.5t27 -40.5q24 -24 48 -24h235q-27 34 -41.5 73.5t-21 85t-6.5 98.5q-1 10 -1 21q0 43 2 90q1 73 18.5 133.5t46.5 108t67.5 82t82.5 56.5q42 20 87 30q41 9 83 9h9q94 0 177 -42q43 -22 81 -55.5t65.5 -79t43.5 -102.5t16 -124v-267
q0 -52 -20.5 -98t-55.5 -81q-42 -42 -98.5 -65.5t-125.5 -23.5h-643q-69 0 -126 23.5t-98 65.5q-35 35 -55.5 81t-20.5 98h-1v370h215v-370zM1046 281q23 0 47 24q17 17 27 40.5t10 52.5h-1v267q0 95 -33.5 154.5t-82.5 85.5q-30 13 -55 14q-24 0 -53 -13q-25 -13 -47 -35
t-39 -54.5t-27 -74.5t-11 -95q-1 -36 -1 -68q0 -17 1 -32q0 -46 5 -84.5t16 -68.5t31 -51q12 -13 24 -23t29.5 -17.5t43 -13t64.5 -8.5h52zM842 1275q0 23 9 43t24 35t35 23.5t43 8.5q22 0 41.5 -8.5t34 -23.5t23 -35t8.5 -43t-8.5 -42.5t-23 -34t-34 -23t-41.5 -8.5
q-23 0 -43 8.5t-35 23t-24 34t-9 42.5z" />
    <glyph glyph-name="afii57442" unicode="&#x642;" horiz-adv-x="1362" arabic-form="isolated" 
d="M1262 134q-5 -83 -23 -147t-48 -112t-70 -82.5t-89 -57.5q-60 -29 -126 -42t-136 -18q-66 0 -125 1t-113 7.5t-104 19.5t-99 36q-49 24 -89 58t-70 82.5t-48 112t-22 146.5l214 6q3 -62 14 -108t28.5 -80t41 -56.5t52.5 -36.5q28 -13 64 -20.5t77 -11t86.5 -4.5t92.5 -1
q42 4 77 11.5t64 21.5q28 13 51.5 35t41 54t28.5 76.5t15 103.5q-94 1 -168 9.5t-131.5 24.5t-100.5 40t-74 56q-34 35 -52.5 76.5t-27 90t-9.5 104.5v38q0 39 1 82q1 73 18 133.5t46 108t68 82t83 56.5q79 39 170 39h9q94 0 177 -42q43 -22 81 -55.5t65.5 -79t43.5 -102.5
t16 -124v-531zM1047 665q0 95 -33.5 154.5t-83.5 85.5q-28 13 -54 14q-24 0 -53 -13q-51 -26 -86.5 -89.5t-37.5 -169.5q-1 -36 -1 -68q0 -17 1 -32q0 -46 5 -84.5t16 -68.5t31 -51q31 -32 101 -48t195 -17v387zM879 1275q0 23 9 43t24 35t35 23.5t43 8.5q22 0 41.5 -8.5
t34 -23.5t23 -35t8.5 -43t-8.5 -42.5t-23 -34t-34 -23t-41.5 -8.5q-23 0 -43 8.5t-35 23t-24 34t-9 42.5zM618 1275q0 23 9 43t24 35t34.5 23.5t41.5 8.5t42 -8.5t35 -23.5t23.5 -35t8.5 -43t-8.5 -42.5t-23.5 -34t-35 -23t-42 -8.5t-41.5 8.5t-34.5 23t-24 34t-9 42.5z" />
    <glyph glyph-name="afii57443" unicode="&#x643;" horiz-adv-x="1443" arabic-form="isolated" 
d="M315 774v-376q0 -29 10 -52.5t27 -40.5q24 -24 47 -24h647q22 0 46 24q17 17 27 40.5t10 52.5v969h214v-969q0 -52 -20.5 -98t-55.5 -81q-41 -42 -98 -65.5t-125 -23.5h-643q-69 0 -126 23.5t-98 65.5q-35 35 -55.5 81t-20.5 98h-1v376h215zM951 696l-440 -34l-17 112
l160 12q-29 38 -52.5 70t-35.5 63q-11 29 -11 59v5q1 33 21 73q24 51 73 75t110 32q29 3 58 3q21 0 43 -1q51 -5 96 -12l-35 -110q-34 6 -70 10q-17 1 -32 1q-18 0 -34 -2q-20 -2 -34.5 -9t-22.5 -23q-11 -22 -11 -42q0 -3 1 -5q1 -22 12.5 -44.5t31.5 -47.5t44 -57
q5 -6 10 -12.5t10 -12.5l109 8z" />
    <glyph glyph-name="afii57444" unicode="&#x644;" horiz-adv-x="1119" arabic-form="isolated" 
d="M314 140q3 -63 14 -110t27.5 -81.5t38 -57.5t44.5 -37q19 -11 39 -17.5t38.5 -9.5t35.5 -3h30q6 0 13 1t15 3q9 2 17.5 4.5t16.5 5.5q28 12 55.5 35t50 59t38 87.5t18.5 120.5v1229h214v-1233q-4 -93 -28 -163.5t-60.5 -122t-82 -85.5t-92.5 -54q-41 -18 -82 -27
q-20 -5 -40 -7t-40 -3h-59q-34 1 -73 7.5t-81.5 20.5t-84.5 40q-38 23 -71.5 56.5t-60 81.5t-43.5 111t-21 145z" />
    <glyph glyph-name="afii57445" unicode="&#x645;" horiz-adv-x="1070" arabic-form="isolated" 
d="M-9 -244q50 0 85 18.5t57.5 50t34.5 74.5t17.5 92t6 101.5t0.5 104.5v468q0 67 16 124t43.5 102.5t65.5 79t82 55.5q41 21 85.5 31.5t90.5 10.5h9q91 0 171 -39q44 -22 82.5 -56.5t67.5 -82t46 -108t19 -133.5v-343q0 -29 -5.5 -56t-18.5 -52q-20 -42 -57.5 -78
t-82.5 -54q-62 -28 -130 -28q-41 0 -83 10h-4l-183 49q-1 -62 -7 -122.5t-21.5 -115t-43.5 -101t-73.5 -80.5t-111.5 -53t-158 -19v150zM407 257l256 -67q5 -1 10 -1q8 0 15 3q12 4 22.5 12.5t19 19.5t13.5 22q13 26 13 60l-1 341q-2 106 -37.5 169.5t-86.5 89.5
q-29 13 -53 13q-26 -1 -54 -14q-50 -26 -83.5 -85.5t-33.5 -154.5v-408z" />
    <glyph glyph-name="afii57446" unicode="&#x646;" horiz-adv-x="1326" arabic-form="isolated" 
d="M327 439q-5 -26 -7 -49t-3 -44v-14q0 -82 23 -145q24 -69 68 -117q40 -45 91 -71t107 -36q14 -2 27.5 -3.5t27.5 -1.5h15q98 0 171 36q79 38 122 100q9 12 16 25t13 27q5 14 8.5 28t5.5 28v775h214v-747l-1 -40q-4 -43 -21 -84q-8 -20 -18.5 -39.5t-23.5 -38.5
q-35 -50 -85.5 -91t-115 -70.5t-142.5 -45.5q-69 -14 -147 -14h-19q-25 1 -49.5 3t-48.5 7q-95 17 -180 59.5t-148 113.5q-60 66 -93 155q-31 82 -31 184v19q1 27 3 54t7 54zM549 1177q0 24 9 45t25 36.5t37 24.5t44 9t43.5 -9t36 -24.5t24.5 -36.5t9 -45t-9 -44.5
t-24.5 -36t-36 -24t-43.5 -8.5t-44 8.5t-37 24t-25 36t-9 44.5z" />
    <glyph glyph-name="afii57470" unicode="&#x647;" horiz-adv-x="979" arabic-form="isolated" 
d="M879 398q0 -52 -20.5 -98t-55.5 -81q-42 -42 -98.5 -65.5t-125.5 -23.5q-140 4 -237.5 38.5t-151.5 89.5q-34 35 -52.5 76.5t-27 90t-9.5 104.5v38q0 39 1 82q1 73 18.5 133.5t46.5 108t67.5 82t82.5 56.5q42 20 87 30q41 9 83 9h9q94 0 177 -42q43 -22 81 -55.5
t65.5 -79t43.5 -102.5t16 -124v-267zM316 647q-1 -36 -1 -68q0 -17 1 -32q0 -46 5 -84.5t16 -68.5t31 -51q16 -17 47.5 -31.5t74.5 -22.5q16 -3 34.5 -6t36.5 -3t35.5 5.5t31.5 19.5q17 17 27 40.5t10 52.5h-1v267q0 95 -33.5 154.5t-82.5 85.5q-30 13 -55 14q-24 0 -53 -13
q-25 -13 -47 -35t-39 -54.5t-27 -74.5t-11 -95z" />
    <glyph glyph-name="afii57448" unicode="&#x648;" horiz-adv-x="979" arabic-form="isolated" 
d="M879 134q-5 -83 -23 -147t-48 -112t-70 -82.5t-89 -57.5q-49 -24 -102 -37t-109 -19t-115 -7t-119 -1v150q48 0 93.5 0.5t87.5 4.5t78 11.5t65 21.5q28 13 51 35t41 54t29 76.5t15 103.5q-94 1 -168 9.5t-131.5 24.5t-100.5 40t-74 56q-34 35 -52.5 76.5t-27 90
t-9.5 104.5v120q1 73 18.5 133.5t46.5 108t67.5 82t82.5 56.5q80 39 171 39h9q94 0 177 -42q43 -22 81 -55.5t65.5 -79t43.5 -102.5t16 -124v-460l-6 -71h6zM664 665q0 95 -33.5 154.5t-83.5 85.5q-28 13 -54 14q-24 0 -53 -13q-51 -26 -86.5 -89.5t-37.5 -169.5
q-1 -36 -1 -68q0 -17 1 -32q0 -46 5 -84.5t16 -68.5t31 -51q31 -32 101 -48t195 -17v387z" />
    <glyph glyph-name="afii57449" unicode="&#x649;" horiz-adv-x="1332" arabic-form="isolated" 
d="M1149 877q-50 11 -90 11h-14q-49 0 -92 -12q-50 -15 -89 -41q-42 -28 -70 -67t-39 -87q88 -23 158.5 -55t124.5 -70.5t92 -81.5t61 -89q24 -48 33 -96q4 -28 4 -56q0 -20 -2 -40q-5 -48 -24 -93t-51 -87q-36 -47 -86 -85.5t-113 -66t-138 -41.5q-66 -13 -140 -13h-20
q-26 1 -50.5 3t-49.5 7q-94 17 -179 59.5t-148 113.5q-60 66 -93 155q-31 82 -31 184v19q1 27 3 54t7 54l214 -17q-5 -26 -7 -49t-3 -44v-14q0 -82 23 -145q24 -69 69 -117q39 -45 90 -71t107 -36q14 -2 27.5 -3.5t27.5 -1.5h16q93 0 164 33q77 36 121 93q42 54 50 121
q2 13 2 27q0 19 -3 38q-6 33 -23 65q-18 35 -49.5 68t-78 62t-108.5 52.5t-141 39.5l-78 15l1 58q0 19 2.5 37t6.5 35q17 74 61.5 135.5t110.5 106.5q70 47 159 72q82 22 177 22h15q73 -2 149 -18z" />
    <glyph glyph-name="afii57450" unicode="&#x64a;" horiz-adv-x="1332" arabic-form="isolated" 
d="M1149 877q-50 11 -90 11h-14q-49 0 -92 -12q-50 -15 -89 -41q-42 -28 -70 -67t-39 -87q88 -23 158.5 -55t124.5 -70.5t92 -81.5t61 -89q24 -48 33 -96q4 -28 4 -56q0 -20 -2 -40q-5 -48 -24 -93t-51 -87q-36 -47 -86 -85.5t-113 -66t-138 -41.5q-66 -13 -140 -13h-20
q-26 1 -50.5 3t-49.5 7q-94 17 -179 59.5t-148 113.5q-60 66 -93 155q-31 82 -31 184v19q1 27 3 54t7 54l214 -17q-5 -26 -7 -49t-3 -44v-14q0 -82 23 -145q24 -69 69 -117q39 -45 90 -71t107 -36q14 -2 27.5 -3.5t27.5 -1.5h16q93 0 164 33q77 36 121 93q42 54 50 121
q2 13 2 27q0 19 -3 38q-6 33 -23 65q-18 35 -49.5 68t-78 62t-108.5 52.5t-141 39.5l-78 15l1 58q0 19 2.5 37t6.5 35q17 74 61.5 135.5t110.5 106.5q70 47 159 72q82 22 177 22h15q73 -2 149 -18zM706 -451q0 23 9 43t24 35t35 23.5t43 8.5q22 0 41.5 -8.5t34 -23.5t23 -35
t8.5 -43t-8.5 -42.5t-23 -34t-34 -23t-41.5 -8.5q-23 0 -43 8.5t-35 23t-24 34t-9 42.5zM445 -451q0 23 9 43t24 35t34.5 23.5t41.5 8.5t42 -8.5t35 -23.5t23.5 -35t8.5 -43t-8.5 -42.5t-23.5 -34t-35 -23t-42 -8.5t-41.5 8.5t-34.5 23t-24 34t-9 42.5z" />
    <glyph glyph-name="uniFDFA" unicode="&#xfdfa;" horiz-adv-x="2188" arabic-form="isolated" 
d="M285 68q-21 33 -21 73q0 22 10 46t25.5 43.5t34.5 32t37 12.5q7 0 20 -9q34 -16 54 -16q31 0 55 31l8 10l8 10q9 8 25 43l12 25q2 2 3.5 4.5l4.5 7.5q-9 3 -12 6l-35 10q-102 34 -131 152l-6 29l-4 20v3q0 2 -2 7l-4 2l-6 -8q-67 -94 -148 -94q-21 0 -43 4t-39 10.5
t-28 14.5t-11 16q0 39 68 98q35 29 72 52t78 39l28 10l8 4q4 0 7 2v27q0 4 -3 8l39 63q2 -6 2 -9v-5l2 -27q13 -177 43 -248q34 -66 111 -86q-2 11 -2 17t-2 8l-6 82q-2 12 -3.5 32.5t-4.5 49.5q-6 46 -6 78l36 88v-21l9 -78l6 -65l4 -47l6 -58l4 -47q2 -14 3 -26t3 -23
q8 -2 14 -2t9 -2l55 -4l88 -4h45q208 0 342 82l4 8l10 31q14 37 25 37q6 0 6 -15v-14l-4 -16q-2 -8 -2 -14v-11q9 -12 24 -24.5t32 -22.5t34 -16.5t29 -6.5q50 0 84 88v13l-4 37l-4 43l-4 53q-2 5 -2.5 19.5t-2.5 37.5l-4 57q-2 19 -3 35.5t-1 30.5q-5 -2 -9 -2h-5
q-32 0 -59.5 11t-49.5 31.5t-37 48.5t-20 61h-2q-2 -5 -3 -8t-1 -5q-32 -116 -80 -133v-4h53q18 0 35 -6t29.5 -16.5t20 -25t7.5 -30.5q0 -69 -71 -108l-43 -25q-137 -82 -258 -82q-48 0 -87 13t-66.5 36.5t-42.5 56.5t-15 74q0 29 7.5 64t24.5 74q-60 18 -75 86h-4l-7 -13
q-46 -90 -104 -90q-98 0 -98 154q-5 -3 -7 -4.5t-4 -3.5l-18 -17q-6 -5 -10 -8.5t-6 -5.5q-11 -11 -29.5 -17t-46.5 -6q-111 0 -111 37q0 16 12 38.5t35 53.5q17 23 80 54l31 14q27 12 31 12q14 6 23.5 12t17.5 11v22l37 70v-51l2 -35l2 -43l2 -47v-49l2 -17l2 -26
q6 -62 59 -62q58 0 86 47l6 11q2 3 2 4q0 2 2 4l-2 4v4q0 2 -2 4l-4 41l-10 68l-10 67l-4 33v5q0 4 -2 9l39 76q2 -5 2 -9v-5l8 -41l10 -60l10 -61q3 -17 5.5 -33.5t4.5 -32.5q4 -23 6.5 -37t4.5 -22l4 -18v-7q16 -41 69 -41q41 0 46 25v2q0 33 -21 105l-18 59l-17 53
l-12 43q0 2 -1 7.5t-3 13.5l24 65q5 -14 11.5 -38.5t17.5 -59.5q53 -171 53 -225q0 -24 -7 -48.5t-17.5 -44.5t-23.5 -32.5t-25 -12.5h-9q-3 0 -8 2q-8 -17 -11 -36.5t-3 -40.5q0 -70 49 -111t135 -41q154 0 281 92l10 6l2 2v5q0 13 -111 28q-23 3 -36.5 4.5t-16.5 3.5
l-16.5 3t-7.5 1q-17 5 -17 19v8l4 8l7 19q7 17 20 30q8 5 18 9.5t21 9.5q28 12 45.5 22.5t28 24t14.5 31t4 43.5v38q0 17 -2 31l-4 60l-6 86l-8 76l-9 79q-6 66 -12 97l37 110q2 -12 2 -20q0 -7 2 -10l10 -95l15 -118l10 -86q21 -177 57 -244q20 -32 51 -51.5t74 -24.5
q-2 17 -3 34t-1 34v22q0 12 -2 23l-2 43v39l41 90q6 -56 6 -72l2 -68q0 -2 6 -75v-22q0 -11 2 -25l2 -21q5 2 9.5 3t7.5 1q45 15 57 21q14 7 51 37l15 10q3 -3 5.5 -4.5t4.5 -3.5q37 -29 69 -46t60 -20q40 38 80 71.5t82 61.5q82 55 112 55q42 0 86 -32q49 -31 49 -58
q0 -33 -30 -82q-16 -23 -31 -39t-31 -24q-43 -23 -108.5 -34t-155.5 -11q-17 0 -35 1t-37 3q-47 -94 -75 -94q-9 0 -9 12q0 11 6 25t17 32l12 25q2 2 4 4.5t4 7.5q-5 2 -8.5 3t-5.5 3l-20 11q-20 9 -36.5 18t-27.5 19q-51 -34 -61 -37l-37 -11l-10 -4h-9v-26l5 -47l2 -60
q12 -178 55 -239q44 -62 162 -68v4q-39 27 -39 86q0 83 57 152t127 69q25 0 51 -7.5t48.5 -19.5t38.5 -27t20 -30v-14q-47 20 -105 20q-34 0 -67 -7.5t-59 -19.5t-42 -27t-16 -30q0 -30 53 -86q28 -26 49.5 -39.5t36.5 -13.5h4q3 0 7 2q2 0 6 1l12 3q160 37 246 80l-33 -73
q-213 -109 -385 -109q-186 0 -244 137l-4 12q-56 -133 -115 -133q-60 0 -135 90q-149 -114 -385 -114q-48 0 -86.5 2.5t-70.5 7.5q2 -5 2 -8v-4l4 -25q8 -60 20.5 -101.5t32.5 -64.5q17 -20 50.5 -35.5t84.5 -29.5q53 -14 109 -20.5t116 -6.5q218 0 336 62q32 77 58 77
q8 0 8 -16q0 -26 -17 -68q-2 -6 -3 -10.5t-3 -9.5q9 -29 53 -29q65 0 101 27q6 9 6 12l12 37q28 76 47 82h2q9 0 9 -12v-15q0 -26 -13 -61l-4 -12l-2 -7q48 -28 90 -28q15 0 15 14q0 16 -11 47l-6 25l33 71q27 -65 27 -108q0 -60 -25.5 -95.5t-67.5 -35.5q-35 0 -81 29
q-2 2 -5 3.5t-8 4.5q-46 -54 -119 -54q-94 0 -100 54q-60 -35 -153 -53.5t-218 -18.5q-110 0 -186.5 15.5t-125.5 51t-74 92t-31 138.5v18q-65 -104 -95 -120q23 -51 23 -82q0 -44 -21.5 -73.5t-56.5 -29.5q-14 0 -27 3t-24 10l-41 18q-11 5 -17.5 9t-11.5 7
q-56 -104 -135 -104h-19q-7 0 -14 -2l-10 -4l-6 -2l-16 -4h-7q-2 0 -6 4v6q2 5 9 9t18 9q17 8 29 13t18 8l25 10q8 5 15 10.5t15 10.5l17 12l16 12q4 4 19 12q5 5 9 8.5t7 6.5zM453 105q0 14 -10.5 30t-32.5 33q-41 35 -78 35q-27 0 -27 -25q0 -22 48 -55q46 -31 81 -31h9
q10 0 10 13zM365 639l-6 76q-31 -11 -60.5 -24.5t-58.5 -30.5q-57 -34 -57 -48q0 -4 2 -6l4 -2l6 -6q9 -6 41 -6q76 0 129 47zM402 1092l-2 80q-5 -2 -8 -3t-5 -1l-28 -15l-41 -16q-70 -31 -70 -49q0 -23 55 -23q23 0 48 6.5t51 20.5zM506 1577q-2 -8 -2 -14v-10
q0 -50 35 -50q23 0 39 31q-2 5 -2 7v5l-2 19v5q0 4 -2 9l20 27l6 -43l2 -15q3 -32 29 -32q23 0 23 20v10l-3 19l-4 16v8l15 23q14 -41 14 -78q0 -65 -45 -65q-19 0 -41 16q-40 -31 -53 -31q-49 0 -49 53q0 29 6 58zM951 1546q3 -29 5.5 -59.5t4.5 -62.5l6 -87l6 -86l6 -92
l4 -53v-5q0 -3 2 -9l-2 -23q-9 -112 -24 -127q-2 8 -2 12v7l-9 59l-8 80l-10 88l-8 90l-10 102l-4 56zM1266 1376l6 52l418 188l-10 -47zM1610 1153q-34 14 -51 34.5t-17 49.5q0 60 56 90l53 31q78 45 171 88.5t200 85.5l-19 -49l-22 -10q-79 -31 -149.5 -63.5t-133.5 -67.5
q-125 -67 -125 -91q0 -15 47 -45l6 -4zM1737 969q14 -2 24 -2h19q92 0 172 18q81 22 90 45v4q0 15 -35 33q-17 11 -31.5 16t-25.5 5q-30 0 -100 -39q-35 -20 -63 -40t-50 -40zM932 266l57 70l99 -72l53 68l100 -76l-53 -63l-98 71l-58 -71zM2030 111l-14 43q-42 -54 -76 -54
q-15 0 -28 7.5t-22.5 20.5t-15.5 29t-6 34q0 48 31 106q33 59 57 59q32 0 70 -59q39 -59 39 -106q0 -118 -86 -236q-86 -119 -172 -119q-20 0 -48 8t-65 23q-72 28 -82 47v6q2 2 3.5 3t6.5 1h2q9 -3 21 -6l20 -6l35 -10q14 -5 26.5 -6.5t24.5 -1.5q133 0 279 217zM1913 215
q16 -35 64 -35q11 0 17 6t11 17q-15 63 -53 63q-14 0 -24 -12.5t-15 -38.5zM1231 -115q8 -8 17 -8q30 0 30 29q0 28 23 31v-45q0 -45 -53 -45q-8 0 -14.5 2.5t-14.5 7.5q-33 -33 -62 -33q-16 0 -30 14l-13 13q-8 8 -16 8t-23 -6.5t-36 -20.5q-35 -23 -72 -34t-72 -11h-33
q-69 0 -69 17q0 16 67 16h39q64 0 123 35q61 39 82 39q22 0 49 -27q8 -4 11 -6h8q29 3 32 27v8q0 14 19 24l4 2q8 0 8 -12v-4q0 -3 -2 -6q-2 -2 -2 -10v-5z" />
    <glyph glyph-name="uniFE86" unicode="&#x622;" horiz-adv-x="991" arabic-form="final" 
d="M1020 130h-142q-5 -82 -23.5 -145t-48 -111t-70 -82t-88.5 -57q-49 -24 -102 -37t-109 -19t-115 -7t-119 -1v150q48 0 93.5 0.5t87.5 4.5t78 11.5t65 21.5q28 13 51 35t41 54t29 76.5t15 103.5q-94 1 -168 9.5t-131.5 24.5t-100.5 40t-74 56q-34 35 -52.5 76.5t-27 90
t-9.5 104.5v120q1 73 18.5 133.5t46.5 108t67.5 82t82.5 56.5q80 39 171 39h9q94 0 177 -42q43 -22 81 -55.5t65.5 -79t43.5 -102.5t16 -124v-384h142v-151zM663 665q0 95 -33.5 154.5t-83.5 85.5q-28 13 -54 14q-24 0 -53 -13q-51 -26 -86.5 -89.5t-37.5 -169.5
q-1 -36 -1 -68q0 -17 1 -32q0 -46 5 -84.5t16 -68.5t31 -51q31 -32 101 -48t195 -17v387zM664 1185l-307 -20l-8 107l57 3q-22 29 -33.5 50t-15.5 38q-2 10 -2 19q0 7 1 14q3 15 10 34q10 27 30 48t48 35.5t61.5 21.5t69.5 7q29 0 46.5 -2.5t34.5 -6.5l-18 -104
q-39 14 -68 14q-11 0 -21 -2q-36 -7 -48 -37q-7 -16 -7 -33q0 -13 5 -26q9 -30 50 -57l120 11z" />
    <glyph glyph-name="uniFE8A" unicode="&#x623;" horiz-adv-x="1254" arabic-form="final" 
d="M366 463q-52 -153 -52 -270v-17q4 -123 50 -208q26 -48 60.5 -82t76.5 -57q39 -21 81.5 -32t84.5 -12h10q70 0 134 26q68 27 114 82q21 24 34 53q11 24 15 52q1 8 1 16q0 20 -6 40q-8 31 -29 63t-61 66q-32 27 -77.5 54t-107.5 55l111 128l4 -1l2 -1q32 -13 61 -26
t56 -25q41 -19 78.5 -34.5t78 -27t88 -18t109.5 -6.5v-151q-34 0 -64 1.5t-57 3.5q7 -14 12 -27.5t8 -27.5q8 -33 8 -63q0 -16 -2 -31q-6 -45 -23 -84q-21 -46 -54 -84q-39 -47 -89 -81.5t-108.5 -57.5t-121.5 -34q-59 -10 -119 -10h-11q-76 2 -150.5 20.5t-141.5 55.5
q-64 35 -117 85.5t-89 118.5q-28 52 -44.5 114.5t-18.5 135.5v18q0 65 12 138q13 83 46 177zM488 651l-307 -20l-8 107l57 3q-22 29 -33.5 50t-15.5 38q-2 10 -2 19q0 7 1 14q3 15 10 34q10 27 30 48t48 35.5t61.5 21.5t69.5 7q29 0 46.5 -2.5t34.5 -6.5l-18 -104
q-39 14 -68 14q-11 0 -21 -2q-36 -7 -48 -37q-7 -16 -7 -33q0 -13 5 -26q9 -30 50 -57l120 11z" />
    <glyph glyph-name="uniFE8C" unicode="&#x624;" horiz-adv-x="671" arabic-form="final" 
d="M451 977v-579q0 -10 -1 -15q2 -23 12 -43t25 -35q24 -24 48 -24h166v-151h-165q-57 0 -105.5 16t-87.5 45q-38 -29 -86.5 -45t-105.5 -16h-181v151h182q24 0 48 24q31 31 36 78v594h215zM482 1185l-307 -20l-8 107l57 3q-22 29 -33.5 50t-15.5 38q-2 10 -2 19q0 7 1 14
q3 15 10 34q10 27 30 48t48 35.5t61.5 21.5t69.5 7q29 0 46.5 -2.5t34.5 -6.5l-18 -104q-39 14 -68 14q-11 0 -21 -2q-36 -7 -48 -37q-7 -16 -7 -33q0 -13 5 -26q9 -30 50 -57l120 11z" />
    <glyph glyph-name="uniFE90" unicode="&#x625;" horiz-adv-x="1484" arabic-form="final" 
d="M623 -169q0 23 9 43t24 35t34.5 23.5t41.5 8.5t42 -8.5t35 -23.5t23.5 -35t8.5 -43t-8.5 -42.5t-23.5 -34t-35 -23t-42 -8.5t-41.5 8.5t-34.5 23t-24 34t-9 42.5zM1345 972v-574q0 -10 -1 -15q2 -23 12 -43t25 -35q24 -24 48 -24h85v-151h-84q-57 0 -105.5 16t-87.5 45
q-38 -29 -86.5 -45t-105.5 -16h-644q-69 0 -126 23.5t-98 65.5q-35 35 -55.5 81t-20.5 98h-1v376h215v-376q0 -29 10 -52.5t27 -40.5q24 -24 47 -24h647q24 0 48 24q31 31 36 78v589h215z" />
    <glyph glyph-name="uniFE92" unicode="&#x626;" horiz-adv-x="671" arabic-form="final" 
d="M212 -169q0 23 9 43t24 35t34.5 23.5t41.5 8.5t42 -8.5t35 -23.5t23.5 -35t8.5 -43t-8.5 -42.5t-23.5 -34t-35 -23t-42 -8.5t-41.5 8.5t-34.5 23t-24 34t-9 42.5zM451 977v-579q0 -10 -1 -15q2 -23 12 -43t25 -35q24 -24 48 -24h166v-151h-165q-57 0 -105.5 16t-87.5 45
q-38 -29 -86.5 -45t-105.5 -16h-181v151h182q24 0 48 24q31 31 36 78v594h215z" />
    <glyph glyph-name="uniFE94" unicode="&#x626;" horiz-adv-x="1031" arabic-form="initial" 
d="M878 521q0 -12 -0.5 -23.5t-1.5 -22.5v-77h-1q0 -29 10 -52.5t27 -40.5q11 -11 24 -18t25 -7v1h99v-151h-99q-65 0 -119 21t-96 59q-35 -31 -74 -50q-83 -42 -177 -42h-9q-42 0 -83 9q-45 10 -87 30q-44 22 -82.5 56.5t-67.5 82t-46.5 107.5t-18.5 134q-1 43 -1 82v38
q1 56 9.5 104.5t27 90t52.5 76.5q36 36 87 62.5t122 42.5t165 22q54 3 117 3q46 0 97 -2l101 -4v-531zM663 565v343q-125 -1 -195 -17.5t-101 -47.5q-20 -21 -31 -51t-16 -68.5t-5 -84.5q-1 -15 -1 -32q0 -32 1 -68q1 -53 11 -95t27 -74.5t39 -54.5t47 -35q29 -13 53 -13
q25 1 55 14q43 23 74.5 72t39.5 127v85h2zM565 1339q0 23 9 43t24 35t35 23.5t43 8.5q22 0 41.5 -8.5t34 -23.5t23 -35t8.5 -43t-8.5 -42.5t-23 -34t-34 -23t-41.5 -8.5q-23 0 -43 8.5t-35 23t-24 34t-9 42.5zM304 1339q0 23 9 43t24 35t34.5 23.5t41.5 8.5t42 -8.5
t35 -23.5t23.5 -35t8.5 -43t-8.5 -42.5t-23.5 -34t-35 -23t-42 -8.5t-41.5 8.5t-34.5 23t-24 34t-9 42.5z" />
    <glyph glyph-name="uniFE96" unicode="&#x626;" horiz-adv-x="1484" arabic-form="medial" 
d="M742 1190q0 23 9 43t24 35t35 23.5t43 8.5q22 0 41.5 -8.5t34 -23.5t23 -35t8.5 -43t-8.5 -42.5t-23 -34t-34 -23t-41.5 -8.5q-23 0 -43 8.5t-35 23t-24 34t-9 42.5zM481 1190q0 23 9 43t24 35t34.5 23.5t41.5 8.5t42 -8.5t35 -23.5t23.5 -35t8.5 -43t-8.5 -42.5
t-23.5 -34t-35 -23t-42 -8.5t-41.5 8.5t-34.5 23t-24 34t-9 42.5zM1345 972v-574q0 -10 -1 -15q2 -23 12 -43t25 -35q24 -24 48 -24h85v-151h-84q-57 0 -105.5 16t-87.5 45q-38 -29 -86.5 -45t-105.5 -16h-644q-69 0 -126 23.5t-98 65.5q-35 35 -55.5 81t-20.5 98h-1v376
h215v-376q0 -29 10 -52.5t27 -40.5q24 -24 47 -24h647q24 0 48 24q31 31 36 78v589h215z" />
    <glyph glyph-name="uniFE98" unicode="&#x627;" horiz-adv-x="671" arabic-form="final" 
d="M337 1319q0 23 9 43t24 35t35 23.5t43 8.5q22 0 41.5 -8.5t34 -23.5t23 -35t8.5 -43t-8.5 -42.5t-23 -34t-34 -23t-41.5 -8.5q-23 0 -43 8.5t-35 23t-24 34t-9 42.5zM76 1319q0 23 9 43t24 35t34.5 23.5t41.5 8.5t42 -8.5t35 -23.5t23.5 -35t8.5 -43t-8.5 -42.5
t-23.5 -34t-35 -23t-42 -8.5t-41.5 8.5t-34.5 23t-24 34t-9 42.5zM451 977v-579q0 -10 -1 -15q2 -23 12 -43t25 -35q24 -24 48 -24h166v-151h-165q-57 0 -105.5 16t-87.5 45q-38 -29 -86.5 -45t-105.5 -16h-181v151h182q24 0 48 24q31 31 36 78v594h215z" />
    <glyph glyph-name="uniFE9B" unicode="&#x628;" horiz-adv-x="699" arabic-form="final" 
d="M381 1200q0 23 9 43t24 35t35 23.5t43 8.5q22 0 41.5 -8.5t34 -23.5t23 -35t8.5 -43t-8.5 -42.5t-23 -34t-34 -23t-41.5 -8.5q-23 0 -43 8.5t-35 23t-24 34t-9 42.5zM217 1458q0 23 9 43t24 35t34.5 23.5t41.5 8.5t42 -8.5t35 -23.5t23.5 -35t8.5 -43t-8.5 -42.5
t-23.5 -34t-35 -23t-42 -8.5t-41.5 8.5t-34.5 23t-24 34t-9 42.5zM52 1200q0 23 9 43t24 35t34.5 23.5t41.5 8.5t42 -8.5t35 -23.5t23.5 -35t8.5 -43t-8.5 -42.5t-23.5 -34t-35 -23t-42 -8.5t-41.5 8.5t-34.5 23t-24 34t-9 42.5zM531 977v-579q0 -52 -20.5 -98t-55.5 -81
q-42 -42 -98.5 -65.5t-125.5 -23.5h-261v151h262q24 0 48 24q17 17 27 40.5t10 52.5h-1v579h215z" />
    <glyph glyph-name="uniFE9C" unicode="&#x628;" horiz-adv-x="671" arabic-form="initial" 
d="M400 1200q0 23 9 43t24 35t35 23.5t43 8.5q22 0 41.5 -8.5t34 -23.5t23 -35t8.5 -43t-8.5 -42.5t-23 -34t-34 -23t-41.5 -8.5q-23 0 -43 8.5t-35 23t-24 34t-9 42.5zM236 1458q0 23 9 43t24 35t34.5 23.5t41.5 8.5t42 -8.5t35 -23.5t23.5 -35t8.5 -43t-8.5 -42.5
t-23.5 -34t-35 -23t-42 -8.5t-41.5 8.5t-34.5 23t-24 34t-9 42.5zM71 1200q0 23 9 43t24 35t34.5 23.5t41.5 8.5t42 -8.5t35 -23.5t23.5 -35t8.5 -43t-8.5 -42.5t-23.5 -34t-35 -23t-42 -8.5t-41.5 8.5t-34.5 23t-24 34t-9 42.5zM451 977v-579q0 -10 -1 -15q2 -23 12 -43
t25 -35q24 -24 48 -24h166v-151h-165q-57 0 -105.5 16t-87.5 45q-38 -29 -86.5 -45t-105.5 -16h-181v151h182q24 0 48 24q31 31 36 78v594h215z" />
    <glyph glyph-name="uniFE9E" unicode="&#x628;" horiz-adv-x="1154" arabic-form="medial" 
d="M1180 129h-59q-53 0 -91 6.5t-65 17.5t-45.5 27t-33 36t-27.5 44t-29 50q-23 4 -49.5 7.5t-55.5 6.5q-36 3 -74 4h-14q-32 0 -61 -3q-37 -5 -71 -15t-62 -29q-54 -31 -86 -81t-40 -108q-3 -20 -3 -39q0 -53 22 -103q14 -33 37 -62.5t57 -52.5q35 -24 82 -41t107 -23
q35 -4 76 -4q27 0 58 2q73 4 161 23l62 -143q-121 -26 -225 -31q-31 -1 -60 -1q-70 0 -131 8q-87 12 -157 39t-124 65t-91 82.5t-58 95.5q-21 48 -27 99q-3 22 -3 45q0 28 4 56q12 86 63 162.5t138 126.5q32 20 64.5 33.5t62 21.5t53.5 12.5t39 6.5q54 8 110 8h28
q70 -3 133 -11q-20 110 -48 204t-72 165q-25 40 -57.5 70t-75 46.5t-95.5 19.5h-17q-47 0 -104 -12l-61 144q101 22 185 22q13 0 26 -1q94 -4 167.5 -32t130 -78.5t98.5 -119.5q60 -97 94 -225t58 -274q6 -34 14 -56.5t20 -36t27.5 -19t35.5 -5.5v1h59v-151zM519 -8
q0 23 9 43t24 35t34.5 23.5t41.5 8.5t42 -8.5t35 -23.5t23.5 -35t8.5 -43t-8.5 -42.5t-23.5 -34t-35 -23t-42 -8.5t-41.5 8.5t-34.5 23t-24 34t-9 42.5z" />
    <glyph glyph-name="uniFEA0" unicode="&#x629;" horiz-adv-x="1002" arabic-form="final" 
d="M126 1041q101 22 185 22q13 0 26 -1q94 -4 167.5 -32t130 -78.5t98.5 -119.5q33 -53 57 -115.5t43 -132.5t33 -146.5t27 -156.5h139v-151h-1062v151h707q-12 73 -25 142.5t-29.5 132.5t-37.5 117.5t-49 99.5q-25 40 -57.5 70t-75 46.5t-95.5 19.5h-17q-47 0 -104 -12z
M324 -169q0 23 9 43t24 35t34.5 23.5t41.5 8.5t42 -8.5t35 -23.5t23.5 -35t8.5 -43t-8.5 -42.5t-23.5 -34t-35 -23t-42 -8.5t-41.5 8.5t-34.5 23t-24 34t-9 42.5z" />
    <glyph glyph-name="uniFEA3" unicode="&#x62a;" horiz-adv-x="981" arabic-form="final" 
d="M101 1041q101 22 185 22q13 0 26 -1q94 -4 167.5 -32t130 -78.5t98.5 -119.5q36 -58 62 -128t45.5 -149t34.5 -165.5t29 -176.5v-7q0 -11 -4 -22q-7 -15 -20 -26t-31.5 -18.5t-40.5 -8.5q-4 -1 -11 -1h-802v151h682q-12 73 -25 142.5t-29.5 132.5t-37.5 117.5t-49 99.5
q-25 40 -57.5 70t-75 46.5t-95.5 19.5h-17q-47 0 -104 -12z" />
    <glyph glyph-name="uniFEA4" unicode="&#x62a;" horiz-adv-x="1002" arabic-form="initial" 
d="M126 1041q101 22 185 22q13 0 26 -1q94 -4 167.5 -32t130 -78.5t98.5 -119.5q33 -53 57 -115.5t43 -132.5t33 -146.5t27 -156.5h139v-151h-1062v151h707q-12 73 -25 142.5t-29.5 132.5t-37.5 117.5t-49 99.5q-25 40 -57.5 70t-75 46.5t-95.5 19.5h-17q-47 0 -104 -12z
" />
    <glyph glyph-name="uniFEA6" unicode="&#x62a;" horiz-adv-x="1154" arabic-form="medial" 
d="M1184 129h-59q-53 0 -91 6.5t-65 17.5t-45.5 27t-33 36t-27.5 44t-29 50q-23 4 -49.5 7.5t-55.5 6.5q-36 3 -74 4h-14q-32 0 -61 -3q-37 -5 -71 -15t-62 -29q-54 -31 -86 -81t-40 -108q-3 -20 -3 -39q0 -53 22 -103q14 -33 37 -62.5t57 -52.5q35 -24 82 -41t107 -23
q35 -4 76 -4q27 0 58 2q73 4 161 23l62 -143q-121 -26 -225 -31q-31 -1 -60 -1q-70 0 -131 8q-87 12 -157 39t-124 65t-91 82.5t-58 95.5q-21 48 -27 99q-3 22 -3 45q0 28 4 56q12 86 63 162.5t138 126.5q32 20 64.5 33.5t62 21.5t53.5 12.5t39 6.5q54 8 110 8h28
q70 -3 133 -11q-20 110 -48 204t-72 165q-25 40 -57.5 70t-75 46.5t-95.5 19.5h-17q-47 0 -104 -12l-61 144q101 22 185 22q13 0 26 -1q94 -4 167.5 -32t130 -78.5t98.5 -119.5q60 -97 94 -225t58 -274q6 -34 14 -56.5t20 -36t27.5 -19t35.5 -5.5v1h59v-151zM433 1324
q0 23 9 43t24 35t34.5 23.5t41.5 8.5t42 -8.5t35 -23.5t23.5 -35t8.5 -43t-8.5 -42.5t-23.5 -34t-35 -23t-42 -8.5t-41.5 8.5t-34.5 23t-24 34t-9 42.5z" />
    <glyph glyph-name="uniFEA8" unicode="&#x62b;" horiz-adv-x="1002" arabic-form="final" 
d="M126 1041q101 22 185 22q13 0 26 -1q94 -4 167.5 -32t130 -78.5t98.5 -119.5q33 -53 57 -115.5t43 -132.5t33 -146.5t27 -156.5h139v-151h-1062v151h707q-12 73 -25 142.5t-29.5 132.5t-37.5 117.5t-49 99.5q-25 40 -57.5 70t-75 46.5t-95.5 19.5h-17q-47 0 -104 -12z
M264 1350q0 23 9 43t24 35t34.5 23.5t41.5 8.5t42 -8.5t35 -23.5t23.5 -35t8.5 -43t-8.5 -42.5t-23.5 -34t-35 -23t-42 -8.5t-41.5 8.5t-34.5 23t-24 34t-9 42.5z" />
    <glyph glyph-name="uniFEAA" unicode="&#x62b;" horiz-adv-x="923" arabic-form="initial" 
d="M267 1069l2 -1v2h2q26 -1 65.5 -4t85 -14t94.5 -32.5t94.5 -59.5t85 -95t66.5 -139t38 -192q6 -55 6 -118t-6 -135h153v-151h-853v151h488q5 73 5 135q0 69 -6 125q-11 106 -37 176t-64.5 110t-84 60t-95.5 27t-98 11z" />
    <glyph glyph-name="uniFEAC" unicode="&#x62b;" horiz-adv-x="923" arabic-form="medial" 
d="M267 1069l2 -1v2h2q26 -1 65.5 -4t85 -14t94.5 -32.5t94.5 -59.5t85 -95t66.5 -139t38 -192q6 -55 6 -118t-6 -135h153v-151h-853v151h488q5 73 5 135q0 69 -6 125q-11 106 -37 176t-64.5 110t-84 60t-95.5 27t-98 11zM323 1344q0 23 9 43t24 35t34.5 23.5t41.5 8.5
t42 -8.5t35 -23.5t23.5 -35t8.5 -43t-8.5 -42.5t-23.5 -34t-35 -23t-42 -8.5t-41.5 8.5t-34.5 23t-24 34t-9 42.5z" />
    <glyph glyph-name="uniFEB0" unicode="&#x62c;" horiz-adv-x="678" arabic-form="final" 
d="M549 977v-696h159v-151h-159q-5 -82 -23 -145t-48 -111t-70 -82t-89 -57q-49 -24 -102 -37t-109 -19t-114.5 -7t-118.5 -1v150q48 0 93.5 0.5t87 4.5t77.5 11.5t65 21.5q28 13 52 35.5t41.5 56t28.5 79t14 106.5v841h215zM317 1330q0 23 9 43t24 35t34.5 23.5t41.5 8.5
t42 -8.5t35 -23.5t23.5 -35t8.5 -43t-8.5 -42.5t-23.5 -34t-35 -23t-42 -8.5t-41.5 8.5t-34.5 23t-24 34t-9 42.5z" />
    <glyph glyph-name="uniFEB2" unicode="&#x62c;" horiz-adv-x="2123" arabic-form="initial" 
d="M1979 383q4 -47 36 -78q24 -24 48 -24h90v-151h-89q-57 0 -105.5 16t-86.5 45q-39 -29 -87.5 -45t-105.5 -16h-92q-57 0 -105.5 16t-86.5 45q-39 -29 -87.5 -45t-105.5 -16h-97q-48 0 -87 10v-10q-5 -92 -29 -161t-60.5 -119.5t-81.5 -84.5t-91 -54q-41 -18 -82 -27
q-20 -5 -40 -7t-40 -3h-59q-34 1 -73 7.5t-81.5 20.5t-84.5 40q-38 23 -71.5 56.5t-60 81.5t-43.5 111t-21 145v624h214v-620q3 -63 14 -110t27.5 -81.5t38 -57.5t44.5 -37q19 -11 39 -17.5t38.5 -9.5t35.5 -3h30q6 0 13 1t15 3q9 2 17.5 4.5t16.5 5.5q28 12 55.5 35t50 59
t38 87.5t18.5 120.5v837h215v-579q0 -10 -1 -15q2 -23 12 -43t25 -35q24 -24 48 -24h99q24 0 48 24q15 15 25 35t12 43q-1 5 -1 15v579h215v-594q4 -47 36 -78q24 -24 48 -24h94q24 0 48 24q15 15 25 35t12 43q-1 5 -1 15v579h215v-594z" />
    <glyph glyph-name="uniFEB3" unicode="&#x62c;" horiz-adv-x="1438" arabic-form="medial" 
d="M1338 398q0 -52 -20.5 -98t-55.5 -81q-42 -42 -98.5 -65.5t-125.5 -23.5h-92q-57 0 -105.5 16t-86.5 45q-39 -29 -87.5 -45t-105.5 -16h-97q-57 0 -105.5 16t-87.5 45q-38 -29 -86.5 -45t-105.5 -16h-109v151h110q24 0 48 24q31 31 36 78v594h215v-579q0 -10 -1 -15
q2 -23 12 -43t25 -35q24 -24 48 -24h99q24 0 48 24q15 15 25 35t12 43q-1 5 -1 15v579h215v-594q4 -47 36 -78q24 -24 48 -24h94q24 0 48 24q17 17 27 40.5t10 52.5h-1v579h215v-579z" />
    <glyph glyph-name="uniFEB6" unicode="&#x62d;" horiz-adv-x="2123" arabic-form="final" 
d="M1979 383q4 -47 36 -78q24 -24 48 -24h90v-151h-89q-57 0 -105.5 16t-86.5 45q-39 -29 -87.5 -45t-105.5 -16h-92q-57 0 -105.5 16t-86.5 45q-39 -29 -87.5 -45t-105.5 -16h-97q-48 0 -87 10v-10q-5 -92 -29 -161t-60.5 -119.5t-81.5 -84.5t-91 -54q-41 -18 -82 -27
q-20 -5 -40 -7t-40 -3h-59q-34 1 -73 7.5t-81.5 20.5t-84.5 40q-38 23 -71.5 56.5t-60 81.5t-43.5 111t-21 145v624h214v-620q3 -63 14 -110t27.5 -81.5t38 -57.5t44.5 -37q19 -11 39 -17.5t38.5 -9.5t35.5 -3h30q6 0 13 1t15 3q9 2 17.5 4.5t16.5 5.5q28 12 55.5 35t50 59
t38 87.5t18.5 120.5v837h215v-579q0 -10 -1 -15q2 -23 12 -43t25 -35q24 -24 48 -24h99q24 0 48 24q15 15 25 35t12 43q-1 5 -1 15v579h215v-594q4 -47 36 -78q24 -24 48 -24h94q24 0 48 24q15 15 25 35t12 43q-1 5 -1 15v579h215v-594zM1454 1200q0 23 9 43t24 35t35 23.5
t43 8.5q22 0 41.5 -8.5t34 -23.5t23 -35t8.5 -43t-8.5 -42.5t-23 -34t-34 -23t-41.5 -8.5q-23 0 -43 8.5t-35 23t-24 34t-9 42.5zM1290 1458q0 23 9 43t24 35t34.5 23.5t41.5 8.5t42 -8.5t35 -23.5t23.5 -35t8.5 -43t-8.5 -42.5t-23.5 -34t-35 -23t-42 -8.5t-41.5 8.5
t-34.5 23t-24 34t-9 42.5zM1125 1200q0 23 9 43t24 35t34.5 23.5t41.5 8.5t42 -8.5t35 -23.5t23.5 -35t8.5 -43t-8.5 -42.5t-23.5 -34t-35 -23t-42 -8.5t-41.5 8.5t-34.5 23t-24 34t-9 42.5z" />
    <glyph glyph-name="uniFEB7" unicode="&#x62d;" horiz-adv-x="1438" arabic-form="initial" 
d="M1338 398q0 -52 -20.5 -98t-55.5 -81q-42 -42 -98.5 -65.5t-125.5 -23.5h-92q-57 0 -105.5 16t-86.5 45q-39 -29 -87.5 -45t-105.5 -16h-97q-57 0 -105.5 16t-87.5 45q-38 -29 -86.5 -45t-105.5 -16h-109v151h110q24 0 48 24q31 31 36 78v594h215v-579q0 -10 -1 -15
q2 -23 12 -43t25 -35q24 -24 48 -24h99q24 0 48 24q15 15 25 35t12 43q-1 5 -1 15v579h215v-594q4 -47 36 -78q24 -24 48 -24h94q24 0 48 24q17 17 27 40.5t10 52.5h-1v579h215v-579zM808 1200q0 23 9 43t24 35t35 23.5t43 8.5q22 0 41.5 -8.5t34 -23.5t23 -35t8.5 -43
t-8.5 -42.5t-23 -34t-34 -23t-41.5 -8.5q-23 0 -43 8.5t-35 23t-24 34t-9 42.5zM644 1458q0 23 9 43t24 35t34.5 23.5t41.5 8.5t42 -8.5t35 -23.5t23.5 -35t8.5 -43t-8.5 -42.5t-23.5 -34t-35 -23t-42 -8.5t-41.5 8.5t-34.5 23t-24 34t-9 42.5zM479 1200q0 23 9 43t24 35
t34.5 23.5t41.5 8.5t42 -8.5t35 -23.5t23.5 -35t8.5 -43t-8.5 -42.5t-23.5 -34t-35 -23t-42 -8.5t-41.5 8.5t-34.5 23t-24 34t-9 42.5z" />
    <glyph glyph-name="uniFEB8" unicode="&#x62d;" horiz-adv-x="1502" arabic-form="medial" 
d="M1338 383q4 -47 36 -78q24 -24 48 -24h110v-151h-109q-57 0 -105.5 16t-86.5 45q-39 -29 -87.5 -45t-105.5 -16h-92q-57 0 -105.5 16t-86.5 45q-39 -29 -87.5 -45t-105.5 -16h-97q-57 0 -105.5 16t-87.5 45q-38 -29 -86.5 -45t-105.5 -16h-109v151h110q24 0 48 24
q31 31 36 78v594h215v-579q0 -10 -1 -15q2 -23 12 -43t25 -35q24 -24 48 -24h99q24 0 48 24q15 15 25 35t12 43q-1 5 -1 15v579h215v-594q4 -47 36 -78q24 -24 48 -24h94q24 0 48 24q15 15 25 35t12 43q-1 5 -1 15v579h215v-594zM808 1200q0 23 9 43t24 35t35 23.5t43 8.5
q22 0 41.5 -8.5t34 -23.5t23 -35t8.5 -43t-8.5 -42.5t-23 -34t-34 -23t-41.5 -8.5q-23 0 -43 8.5t-35 23t-24 34t-9 42.5zM644 1458q0 23 9 43t24 35t34.5 23.5t41.5 8.5t42 -8.5t35 -23.5t23.5 -35t8.5 -43t-8.5 -42.5t-23.5 -34t-35 -23t-42 -8.5t-41.5 8.5t-34.5 23
t-24 34t-9 42.5zM479 1200q0 23 9 43t24 35t34.5 23.5t41.5 8.5t42 -8.5t35 -23.5t23.5 -35t8.5 -43t-8.5 -42.5t-23.5 -34t-35 -23t-42 -8.5t-41.5 8.5t-34.5 23t-24 34t-9 42.5z" />
    <glyph glyph-name="uniFEBB" unicode="&#x62e;" horiz-adv-x="1394" arabic-form="final" 
d="M441 130v-2q-29 -1 -58 -1q-15 0 -30 1q-46 0 -95 2h-288v151h99q23 0 47 24q17 17 27 40.5t10 52.5v616h215v-156q72 111 157 143q58 23 118.5 35.5t122.5 16.5q19 1 38 1q43 0 87 -5q61 -7 118 -27q60 -20 111 -53t88.5 -79t60 -106t24.5 -135v-18q0 -8 1 -16v-217
q0 -52 -20.5 -98t-55.5 -81q-41 -42 -98 -65.5t-125 -23.5h-554zM367 394q0 -30 -7.5 -58.5t-21.5 -54.5h658q23 0 47 24q17 17 27 40.5t10 52.5v202q0 11 -0.5 22.5t-0.5 23.5q-2 50 -14.5 89.5t-34.5 69.5t-51 50t-63 32q-30 10 -64 14q-23 3 -46 3q-12 0 -24 -1
q-38 -2 -77 -10.5t-77 -23.5q-53 -20 -100.5 -51.5t-82.5 -73.5t-55.5 -93.5t-20.5 -111.5v-145h-2z" />
    <glyph glyph-name="uniFEBC" unicode="&#x62e;" horiz-adv-x="1363" arabic-form="initial" 
d="M1393 130h-1423v151h99q23 0 47 24q17 17 27 40.5t10 52.5v616h215v-156q72 111 157 143q58 23 118.5 35.5t122.5 16.5q19 1 38 1q43 0 87 -5q61 -7 118 -27q60 -20 111 -53t88.5 -79t60 -106t24.5 -135v-18q0 -8 1 -16v-217q0 -32 -8 -61.5t-22 -55.5h129v-151zM367 394
q0 -30 -7.5 -58.5t-21.5 -54.5h658q23 0 47 24q17 17 27 40.5t10 52.5v202q0 11 -0.5 22.5t-0.5 23.5q-2 50 -14.5 89.5t-34.5 69.5t-51 50t-63 32q-30 10 -64 14q-23 3 -46 3q-12 0 -24 -1q-38 -2 -77 -10.5t-77 -23.5q-53 -20 -100.5 -51.5t-82.5 -73.5t-55.5 -93.5
t-20.5 -111.5v-145h-2z" />
    <glyph glyph-name="uniFEBE" unicode="&#x62e;" horiz-adv-x="2022" arabic-form="medial" 
d="M2052 130h-1034q-5 -92 -29 -161t-60.5 -119.5t-81.5 -84.5t-91 -54q-41 -18 -82 -27q-20 -5 -40 -7t-40 -3h-59q-34 1 -73 7.5t-81.5 20.5t-84.5 40q-38 23 -71.5 56.5t-60 81.5t-43.5 111t-21 145v624l214 -3v-617q3 -63 14 -110t27.5 -81.5t38 -57.5t44.5 -37
q19 -11 39 -17.5t38.5 -9.5t35.5 -3h30q6 0 13 1t15 3q9 2 17.5 4.5t16.5 5.5q28 12 55.5 35t50 59t38 87.5t18.5 120.5v839h214v-122l1 1q72 111 157 143q58 23 118.5 35.5t122.5 16.5q19 1 38 1q43 0 87 -5q61 -7 118 -27q60 -20 111 -53t88.5 -79t60 -106t24.5 -135v-18
q0 -8 1 -16v-217q0 -32 -8 -61.5t-22 -55.5h136v-151zM1019 281h629q23 0 47 24q17 17 27 40.5t10 52.5v202q0 11 -0.5 22.5t-0.5 23.5q-2 50 -14.5 89.5t-34.5 69.5t-51 50t-63 32q-30 10 -64 14q-23 3 -46 3q-12 0 -24 -1q-38 -2 -77 -10.5t-77 -23.5
q-53 -20 -100.5 -51.5t-83 -73.5t-56.5 -93.5t-21 -111.5v-258zM1001 1324q0 23 9 43t24 35t34.5 23.5t41.5 8.5t42 -8.5t35 -23.5t23.5 -35t8.5 -43t-8.5 -42.5t-23.5 -34t-35 -23t-42 -8.5t-41.5 8.5t-34.5 23t-24 34t-9 42.5z" />
    <glyph glyph-name="uniFEC0" unicode="&#x62f;" horiz-adv-x="1363" arabic-form="final" 
d="M1393 130h-1423v151h99q23 0 47 24q17 17 27 40.5t10 52.5v616h215v-156q72 111 157 143q58 23 118.5 35.5t122.5 16.5q19 1 38 1q43 0 87 -5q61 -7 118 -27q60 -20 111 -53t88.5 -79t60 -106t24.5 -135v-18q0 -8 1 -16v-217q0 -32 -8 -61.5t-22 -55.5h129v-151zM367 394
q0 -30 -7.5 -58.5t-21.5 -54.5h658q23 0 47 24q17 17 27 40.5t10 52.5v202q0 11 -0.5 22.5t-0.5 23.5q-2 50 -14.5 89.5t-34.5 69.5t-51 50t-63 32q-30 10 -64 14q-23 3 -46 3q-12 0 -24 -1q-38 -2 -77 -10.5t-77 -23.5q-53 -20 -100.5 -51.5t-82.5 -73.5t-55.5 -93.5
t-20.5 -111.5v-145h-2zM389 1337q0 23 9 43t24 35t34.5 23.5t41.5 8.5t42 -8.5t35 -23.5t23.5 -35t8.5 -43t-8.5 -42.5t-23.5 -34t-35 -23t-42 -8.5t-41.5 8.5t-34.5 23t-24 34t-9 42.5z" />
    <glyph glyph-name="uniFEC3" unicode="&#x630;" horiz-adv-x="1394" arabic-form="final" 
d="M441 130v-2q-29 -1 -58 -1q-15 0 -30 1q-46 0 -95 2h-288v151h99q23 0 47 24q17 17 27 40.5t10 52.5v972h215v-512q72 111 157 143q58 23 118.5 35.5t122.5 16.5q19 1 38 1q43 0 87 -5q61 -7 118 -27q60 -20 111 -53t88.5 -79t60 -106t24.5 -135v-18q0 -8 1 -16v-217
q0 -52 -20.5 -98t-55.5 -81q-41 -42 -98 -65.5t-125 -23.5h-554zM367 394q0 -30 -7.5 -58.5t-21.5 -54.5h658q23 0 47 24q17 17 27 40.5t10 52.5v202q0 11 -0.5 22.5t-0.5 23.5q-2 50 -14.5 89.5t-34.5 69.5t-51 50t-63 32q-30 10 -64 14q-23 3 -46 3q-12 0 -24 -1
q-38 -2 -77 -10.5t-77 -23.5q-53 -20 -100.5 -51.5t-82.5 -73.5t-55.5 -93.5t-20.5 -111.5v-145h-2z" />
    <glyph glyph-name="uniFEC6" unicode="&#x631;" horiz-adv-x="1463" arabic-form="final" 
d="M1493 130h-1393v151h69q23 0 47 24q17 17 27 40.5t10 52.5v969h215v-509q72 111 157 143q58 23 118.5 35.5t122.5 16.5q19 1 38 1q43 0 87 -5q61 -7 118 -27q60 -20 111 -53t88.5 -79t60 -106t24.5 -135v-18q0 -8 1 -16v-217q0 -32 -8 -61.5t-22 -55.5h129v-151zM467 394
q0 -30 -7.5 -58.5t-21.5 -54.5h658q23 0 47 24q17 17 27 40.5t10 52.5v202q0 11 -0.5 22.5t-0.5 23.5q-2 50 -14.5 89.5t-34.5 69.5t-51 50t-63 32q-30 10 -64 14q-23 3 -46 3q-12 0 -24 -1q-38 -2 -77 -10.5t-77 -23.5q-53 -20 -100.5 -51.5t-82.5 -73.5t-55.5 -93.5
t-20.5 -111.5v-145h-2zM691 1318q0 23 9 43t24 35t34.5 23.5t41.5 8.5t42 -8.5t35 -23.5t23.5 -35t8.5 -43t-8.5 -42.5t-23.5 -34t-35 -23t-42 -8.5t-41.5 8.5t-34.5 23t-24 34t-9 42.5z" />
    <glyph glyph-name="uniFEC8" unicode="&#x632;" horiz-adv-x="1363" arabic-form="final" 
d="M1393 130h-1423v151h99q23 0 47 24q17 17 27 40.5t10 52.5v969h215v-509q72 111 157 143q58 23 118.5 35.5t122.5 16.5q19 1 38 1q43 0 87 -5q61 -7 118 -27q60 -20 111 -53t88.5 -79t60 -106t24.5 -135v-18q0 -8 1 -16v-217q0 -32 -8 -61.5t-22 -55.5h129v-151zM367 394
q0 -30 -7.5 -58.5t-21.5 -54.5h658q23 0 47 24q17 17 27 40.5t10 52.5v202q0 11 -0.5 22.5t-0.5 23.5q-2 50 -14.5 89.5t-34.5 69.5t-51 50t-63 32q-30 10 -64 14q-23 3 -46 3q-12 0 -24 -1q-38 -2 -77 -10.5t-77 -23.5q-53 -20 -100.5 -51.5t-82.5 -73.5t-55.5 -93.5
t-20.5 -111.5v-145h-2zM601 1331q0 23 9 43t24 35t34.5 23.5t41.5 8.5t42 -8.5t35 -23.5t23.5 -35t8.5 -43t-8.5 -42.5t-23.5 -34t-35 -23t-42 -8.5t-41.5 8.5t-34.5 23t-24 34t-9 42.5z" />
    <glyph glyph-name="uniFECB" unicode="&#x633;" horiz-adv-x="997" arabic-form="final" 
d="M897 130h-927v151h215q-22 27 -35.5 58.5t-21 67t-10 75.5t-2.5 84v40q0 21 1 43v1q3 108 37 186.5t88.5 130t124 76.5t143.5 25h1q72 0 140.5 -26t122.5 -77t87 -126.5t33 -173.5h-215q0 58 -14.5 105t-38.5 80t-54.5 51t-62.5 18h-1q-31 0 -61.5 -17t-55.5 -50.5
t-41.5 -84.5t-18.5 -119v-1q-1 -20 -1 -38v-35q0 -70 5.5 -122.5t30.5 -88.5t77 -56t145 -26h309v-151z" />
    <glyph glyph-name="uniFECC" unicode="&#x633;" horiz-adv-x="973" arabic-form="initial" 
d="M1003 130h-1033v151h215q-22 27 -35.5 58.5t-21 67t-10 75.5t-2.5 84v40q0 21 1 43v1q3 108 37 186.5t88.5 130t124 76.5t143.5 25h1q72 0 140.5 -26t122.5 -77t87 -126.5t33 -173.5h-215q0 58 -14.5 105t-38.5 80t-54.5 51t-62.5 18h-1q-31 0 -61.5 -17t-55.5 -50.5
t-41.5 -84.5t-18.5 -119v-1q-1 -20 -1 -38v-35q0 -70 5.5 -122.5t30.5 -88.5t77 -56t145 -26h415v-151z" />
    <glyph glyph-name="uniFECE" unicode="&#x633;" horiz-adv-x="1041" arabic-form="medial" 
d="M1071 130h-59q-97 0 -175.5 20t-143 54t-117 80t-95.5 99q-67 -34 -108.5 -89.5t-51.5 -121.5q-3 -20 -3 -40q0 -52 21 -103q14 -33 38 -62.5t57 -52.5q35 -24 82 -41t108 -24q36 -4 78 -4q27 0 56 2q74 4 162 23l63 -143q-122 -26 -226 -31q-31 -1 -60 -1q-70 0 -131 8
q-88 12 -158.5 39t-124.5 65t-91 83t-58 96q-21 48 -27 99q-3 23 -3 46q0 28 4 56q12 86 63 162.5t139 126.5q16 11 35 22.5t40 23.5q-21 34 -40 68t-38 67q-28 51 -55.5 98t-56.5 85l-20 26q15 36 25 54.5t21 33.5q21 28 51 57q40 37 93.5 70.5t116.5 54.5t133 27
q18 2 38 2q51 0 103 -12q38 -9 74 -25t66.5 -39t54.5 -52.5t38 -65.5q17 -43 17 -87q0 -22 -4 -44q-13 -66 -55 -123q-26 -35 -60 -67.5t-72.5 -61.5t-80.5 -56t-83 -51q33 -42 70.5 -79t81.5 -64t96 -42.5t113 -15.5v1h59v-151zM507 711q25 -46 50 -88q60 37 113.5 77.5
t85.5 85.5q24 33 33 70q3 14 3 28q0 23 -9 47q-12 30 -37 50.5t-57 28.5q-20 4 -40 4q-13 0 -26 -1q-34 -5 -66 -18t-61 -32.5t-52 -40.5q-11 -11 -20 -21.5t-17 -21.5q26 -38 50.5 -80.5t49.5 -87.5zM389 1421q0 23 9 43t24 35t34.5 23.5t41.5 8.5t42 -8.5t35 -23.5
t23.5 -35t8.5 -43t-8.5 -42.5t-23.5 -34t-35 -23t-42 -8.5t-41.5 8.5t-34.5 23t-24 34t-9 42.5z" />
    <glyph glyph-name="uniFED0" unicode="&#x634;" horiz-adv-x="973" arabic-form="final" 
d="M1003 130h-1033v151h215q-22 27 -35.5 58.5t-21 67t-10 75.5t-2.5 84v40q0 21 1 43v1q3 108 37 186.5t88.5 130t124 76.5t143.5 25h1q72 0 140.5 -26t122.5 -77t87 -126.5t33 -173.5h-215q0 58 -14.5 105t-38.5 80t-54.5 51t-62.5 18h-1q-31 0 -61.5 -17t-55.5 -50.5
t-41.5 -84.5t-18.5 -119v-1q-1 -20 -1 -38v-35q0 -70 5.5 -122.5t30.5 -88.5t77 -56t145 -26h415v-151zM352 1338q0 23 9 43t24 35t34.5 23.5t41.5 8.5t42 -8.5t35 -23.5t23.5 -35t8.5 -43t-8.5 -42.5t-23.5 -34t-35 -23t-42 -8.5t-41.5 8.5t-34.5 23t-24 34t-9 42.5z" />
    <glyph glyph-name="uniFED2" unicode="&#x634;" horiz-adv-x="1450" arabic-form="initial" 
d="M315 398q0 -29 10 -52.5t27 -40.5q24 -24 48 -24h220q-27 34 -41.5 73.5t-21 85t-6.5 98.5q-1 10 -1 21q0 43 2 90q1 73 18.5 133.5t46.5 108t67.5 82t82.5 56.5q40 19 86.5 29t94.5 10t94.5 -9.5t87.5 -29.5q44 -22 82.5 -56.5t67.5 -82t46 -108t19 -133.5q1 -59 1 -112
q0 -52 -6.5 -97.5t-21 -85t-41.5 -73.5h203v-151h-1079q-69 0 -126 23.5t-98 65.5q-35 35 -55.5 81t-20.5 98h-1v370h215v-370zM1131 647q-1 53 -11 95t-27 74.5t-39 54.5t-47 35q-11 6 -26 9t-30 4h-5q-13 0 -27 -3q-16 -3 -29 -10q-25 -13 -47 -35t-39 -54.5t-27 -74.5
t-11 -95q-1 -36 -1 -68q0 -17 1 -32q0 -46 5 -84.5t16 -68.5t31 -51q10 -12 21 -22.5t25.5 -19t34.5 -13.5t49 -5q30 0 50 5t34.5 13.5t25 19t21.5 22.5q20 21 31 51t16 68.5t6 84.5v32q0 32 -1 68zM842 1275q0 23 9 43t24 35t35 23.5t43 8.5q22 0 41.5 -8.5t34 -23.5
t23 -35t8.5 -43t-8.5 -42.5t-23 -34t-34 -23t-41.5 -8.5q-23 0 -43 8.5t-35 23t-24 34t-9 42.5z" />
    <glyph glyph-name="uniFED3" unicode="&#x634;" horiz-adv-x="981" arabic-form="medial" 
d="M387 1344q0 23 9 43t24 35t34.5 23.5t41.5 8.5t42 -8.5t35 -23.5t23.5 -35t8.5 -43t-8.5 -42.5t-23.5 -34t-35 -23t-42 -8.5t-41.5 8.5t-34.5 23t-24 34t-9 42.5zM911 398q0 -52 -20.5 -98t-55.5 -81q-42 -42 -98.5 -65.5t-125.5 -23.5h-641v151h232q-27 34 -41.5 73.5
t-21 85t-6.5 98.5q-1 10 -1 21q0 43 2 90q1 73 18.5 133.5t46.5 108t67.5 82t82.5 56.5q42 20 87 30q41 9 83 9h9q94 0 177 -42q43 -22 81 -55.5t65.5 -79t43.5 -102.5t16 -124v-267zM613 281q23 0 47 24q17 17 27 40.5t10 52.5h-1v267q0 95 -33.5 154.5t-82.5 85.5
q-30 13 -55 14q-24 0 -53 -13q-25 -13 -47 -35t-39 -54.5t-27 -74.5t-11 -95q-1 -36 -1 -68q0 -17 1 -32q0 -46 5 -84.5t16 -68.5t31 -51q12 -13 24 -23t29.5 -17.5t43 -13t64.5 -8.5h52z" />
    <glyph glyph-name="uniFED6" unicode="&#x635;" horiz-adv-x="1340" arabic-form="final" 
d="M1262 281h108v-151h-108q-5 -82 -23.5 -145t-48 -111t-70 -82t-88.5 -57q-60 -29 -126 -42t-136 -18q-66 0 -125 1t-113 7.5t-104 19.5t-99 36q-49 24 -89 58t-70 82.5t-48 112t-22 146.5l214 6q3 -62 14 -108t28.5 -80t41 -56.5t52.5 -36.5q28 -13 64 -20.5t77 -11
t86.5 -4.5t92.5 -1q42 4 77 11.5t64 21.5q28 13 51.5 35t41 54t28.5 76.5t15 103.5q-94 1 -168 9.5t-131.5 24.5t-100.5 40t-74 56q-34 35 -52.5 76.5t-27 90t-9.5 104.5v38q0 39 1 82q1 73 18 133.5t46 108t68 82t83 56.5q79 39 170 39h9q94 0 177 -42q43 -22 81 -55.5
t65.5 -79t43.5 -102.5t16 -124v-384zM1047 665q0 95 -33.5 154.5t-83.5 85.5q-28 13 -54 14q-24 0 -53 -13q-51 -26 -86.5 -89.5t-37.5 -169.5q-1 -36 -1 -68q0 -17 1 -32q0 -46 5 -84.5t16 -68.5t31 -51q31 -32 101 -48t195 -17v387zM879 1275q0 23 9 43t24 35t35 23.5
t43 8.5q22 0 41.5 -8.5t34 -23.5t23 -35t8.5 -43t-8.5 -42.5t-23 -34t-34 -23t-41.5 -8.5q-23 0 -43 8.5t-35 23t-24 34t-9 42.5zM618 1275q0 23 9 43t24 35t34.5 23.5t41.5 8.5t42 -8.5t35 -23.5t23.5 -35t8.5 -43t-8.5 -42.5t-23.5 -34t-35 -23t-42 -8.5t-41.5 8.5
t-34.5 23t-24 34t-9 42.5z" />
    <glyph glyph-name="uniFED7" unicode="&#x635;" horiz-adv-x="981" arabic-form="initial" 
d="M493 1339q0 23 9 43t24 35t35 23.5t43 8.5q22 0 41.5 -8.5t34 -23.5t23 -35t8.5 -43t-8.5 -42.5t-23 -34t-34 -23t-41.5 -8.5q-23 0 -43 8.5t-35 23t-24 34t-9 42.5zM232 1339q0 23 9 43t24 35t34.5 23.5t41.5 8.5t42 -8.5t35 -23.5t23.5 -35t8.5 -43t-8.5 -42.5
t-23.5 -34t-35 -23t-42 -8.5t-41.5 8.5t-34.5 23t-24 34t-9 42.5zM911 398q0 -52 -20.5 -98t-55.5 -81q-42 -42 -98.5 -65.5t-125.5 -23.5h-641v151h232q-27 34 -41.5 73.5t-21 85t-6.5 98.5q-1 10 -1 21q0 43 2 90q1 73 18.5 133.5t46.5 108t67.5 82t82.5 56.5q42 20 87 30
q41 9 83 9h9q94 0 177 -42q43 -22 81 -55.5t65.5 -79t43.5 -102.5t16 -124v-267zM613 281q23 0 47 24q17 17 27 40.5t10 52.5h-1v267q0 95 -33.5 154.5t-82.5 85.5q-30 13 -55 14q-24 0 -53 -13q-25 -13 -47 -35t-39 -54.5t-27 -74.5t-11 -95q-1 -36 -1 -68q0 -17 1 -32
q0 -46 5 -84.5t16 -68.5t31 -51q12 -13 24 -23t29.5 -17.5t43 -13t64.5 -8.5h52z" />
    <glyph glyph-name="uniFED8" unicode="&#x635;" horiz-adv-x="1027" arabic-form="medial" 
d="M513 1331q0 23 9 43t24 35t35 23.5t43 8.5q22 0 41.5 -8.5t34 -23.5t23 -35t8.5 -43t-8.5 -42.5t-23 -34t-34 -23t-41.5 -8.5q-23 0 -43 8.5t-35 23t-24 34t-9 42.5zM252 1331q0 23 9 43t24 35t34.5 23.5t41.5 8.5t42 -8.5t35 -23.5t23.5 -35t8.5 -43t-8.5 -42.5
t-23.5 -34t-35 -23t-42 -8.5t-41.5 8.5t-34.5 23t-24 34t-9 42.5zM697 1029q44 -22 82.5 -56.5t67.5 -82t46 -108t19 -133.5q1 -59 1 -112q0 -52 -6.5 -97.5t-21 -85t-41.5 -73.5h213v-151h-1087v151h217q-27 34 -41.5 73.5t-21 85t-6.5 98.5q-1 10 -1 21q0 43 2 90
q1 73 18.5 133.5t46.5 108t67.5 82t82.5 56.5q40 19 86.5 29t94.5 10t94.5 -9.5t87.5 -29.5zM698 647q-1 53 -11 95t-27 74.5t-39 54.5t-47 35q-11 6 -26 9t-30 4h-5q-13 0 -27 -3q-16 -3 -29 -10q-25 -13 -47 -35t-39 -54.5t-27 -74.5t-11 -95q-1 -36 -1 -68q0 -17 1 -32
q0 -46 5 -84.5t16 -68.5t31 -51q10 -12 21 -22.5t25.5 -19t34.5 -13.5t49 -5q30 0 50 5t34.5 13.5t25 19t21.5 22.5q20 21 31 51t16 68.5t6 84.5v32q0 32 -1 68z" />
    <glyph glyph-name="uniFEDB" unicode="&#x636;" horiz-adv-x="1234" arabic-form="final" 
d="M-30 281h882v-1q17 0 35 20q32 30 32 79v171q-8 44 -48.5 74t-100.5 49.5t-133.5 29.5t-147 14.5t-140.5 4.5h-232l-26 50q-43 83 -43 155q0 46 15.5 86t44.5 75q27 35 64.5 63.5t82.5 51.5q72 38 159 64t174.5 41.5t168.5 22.5t142 7v-151q-50 0 -115.5 -5t-136 -17
t-139.5 -32t-124 -50q-28 -14 -50.5 -31t-38.5 -37q-31 -39 -31 -88q0 -13 1.5 -26.5t6.5 -27.5q66 0 152 -2t177.5 -11t181.5 -28.5t163.5 -53.5t124 -85t63.5 -125v-189q0 -48 -19.5 -90.5t-51.5 -74.5q-38 -39 -92.5 -61.5t-118.5 -22.5h-882v151z" />
    <glyph glyph-name="uniFEDC" unicode="&#x636;" horiz-adv-x="1213" arabic-form="initial" 
d="M-30 281h882v-1q17 0 35 20q32 30 32 79v171q-8 44 -48.5 74t-100.5 49.5t-133.5 29.5t-147 14.5t-140.5 4.5h-232l-26 50q-43 83 -43 155q0 46 15.5 86t44.5 75q27 35 64.5 63.5t82.5 51.5q72 38 159 64t174.5 41.5t168.5 22.5t142 7v-151q-50 0 -115.5 -5t-136 -17
t-139.5 -32t-124 -50q-28 -14 -50.5 -31t-38.5 -37q-31 -39 -31 -88q0 -13 1.5 -26.5t6.5 -27.5q66 0 152 -2t177.5 -11t181.5 -28.5t163.5 -53.5t124 -85t63.5 -125v-189q0 -26 -6 -50.5t-17 -47.5h132v-151h-1273v151z" />
    <glyph glyph-name="uniFEDE" unicode="&#x636;" horiz-adv-x="1134" arabic-form="medial" 
d="M314 140q3 -63 14 -110t27.5 -81.5t38 -57.5t44.5 -37q19 -11 39 -17.5t38.5 -9.5t35.5 -3h30q6 0 13 1t15 3q9 2 17.5 4.5t16.5 5.5q28 12 55.5 35t50 59t38 87.5t18.5 120.5v1229h214v-1088h145v-151h-146q-5 -92 -29 -161t-60.5 -119.5t-81.5 -84.5t-91 -54
q-41 -18 -82 -27q-20 -5 -40 -7t-40 -3h-59q-34 1 -73 7.5t-81.5 20.5t-84.5 40q-38 23 -71.5 56.5t-60 81.5t-43.5 111t-21 145z" />
    <glyph glyph-name="uniFEE0" unicode="&#x637;" horiz-adv-x="601" arabic-form="final" 
d="M402 1369v-971q0 -10 -1 -15q2 -23 12 -43t25 -35q24 -24 48 -24h145v-151h-144q-57 0 -105.5 16t-87.5 45q-38 -29 -86.5 -45t-105.5 -16h-132v151h133q24 0 48 24q31 31 36 78v986h215z" />
    <glyph glyph-name="uniFEE2" unicode="&#x637;" horiz-adv-x="1068" arabic-form="initial" 
d="M-3 -244q50 0 85 18.5t57.5 50t34.5 74.5t17.5 92t6 101.5t0.5 104.5v468q0 67 16 124t43.5 102.5t65.5 79t82 55.5q41 21 85.5 31.5t90.5 10.5h9q91 0 171 -39q44 -22 82.5 -56.5t67.5 -82t46 -108t19 -133.5v-343q0 -7 -0.5 -13t-0.5 -12h123v-151h-194
q-20 -21 -43.5 -37.5t-48.5 -26.5q-62 -28 -130 -28q-41 0 -83 10h-4l-183 49q-1 -62 -7 -122.5t-21.5 -115t-43.5 -101t-73.5 -80.5t-111.5 -53t-158 -19v150zM413 257l256 -67q5 -1 10 -1q8 0 15 3q12 4 22.5 12.5t19 19.5t13.5 22q13 26 13 60l-1 341q-2 106 -37.5 169.5
t-86.5 89.5q-29 13 -53 13q-26 -1 -54 -14q-50 -26 -83.5 -85.5t-33.5 -154.5v-408z" />
    <glyph glyph-name="uniFEE3" unicode="&#x637;" horiz-adv-x="967" arabic-form="medial" 
d="M88 281v384q0 67 16 124t43.5 102.5t65.5 79t82 55.5q41 21 85.5 31.5t91.5 10.5h9q42 0 83 -9q45 -10 87 -30q44 -22 82.5 -56.5t67.5 -82t46 -108t19 -133.5v-1l1 -342q0 -59 -24 -108q-14 -26 -32 -49t-44 -43q-58 -49 -130 -62q-32 -6 -64 -6q-41 0 -84 10h-3
l-309 82h-207v151h118zM304 257l201 -54q32 -11 57 -11q6 0 12 1q28 3 45.5 18.5t25.5 40.5t8 54l-1 341q-1 53 -11 95t-27 74.5t-39 54.5t-47 35q-29 13 -54 13q-26 -2 -54 -14q-50 -26 -83 -85.5t-33 -154.5v-408z" />
    <glyph glyph-name="uniFEE6" unicode="&#x638;" horiz-adv-x="1310" arabic-form="final" 
d="M549 1177q0 24 9 45t25 36.5t37 24.5t44 9t43.5 -9t36 -24.5t24.5 -36.5t9 -45t-9 -44.5t-24.5 -36t-36 -24t-43.5 -8.5t-44 8.5t-37 24t-25 36t-9 44.5zM1226 281h114v-151h-127q-4 -12 -9 -24q-8 -20 -18.5 -39.5t-23.5 -38.5q-35 -50 -85.5 -91t-115 -70.5
t-142.5 -45.5q-69 -14 -147 -14h-19q-25 1 -49.5 3t-48.5 7q-95 17 -180 59.5t-148 113.5q-60 66 -93 155q-31 82 -31 184v19q1 27 3 54t7 54l214 -17q-5 -26 -7 -49t-3 -44v-14q0 -82 23 -145q24 -69 68 -117q40 -45 91 -71t107 -36q14 -2 27.5 -3.5t27.5 -1.5h15
q98 0 171 36q79 38 122 100q9 12 16 25t13 27q5 14 8.5 28t5.5 28v775h214v-696z" />
    <glyph glyph-name="uniFEE7" unicode="&#x638;" horiz-adv-x="631" arabic-form="initial" 
d="M308 1318q0 23 9 43t24 35t34.5 23.5t41.5 8.5t42 -8.5t35 -23.5t23.5 -35t8.5 -43t-8.5 -42.5t-23.5 -34t-35 -23t-42 -8.5t-41.5 8.5t-34.5 23t-24 34t-9 42.5zM531 977v-579q0 -52 -20.5 -98t-55.5 -81q-42 -42 -98.5 -65.5t-125.5 -23.5h-261v151h262q24 0 48 24
q17 17 27 40.5t10 52.5h-1v579h215z" />
    <glyph glyph-name="uniFEE8" unicode="&#x638;" horiz-adv-x="671" arabic-form="medial" 
d="M224 1337q0 23 9 43t24 35t34.5 23.5t41.5 8.5t42 -8.5t35 -23.5t23.5 -35t8.5 -43t-8.5 -42.5t-23.5 -34t-35 -23t-42 -8.5t-41.5 8.5t-34.5 23t-24 34t-9 42.5zM451 977v-579q0 -10 -1 -15q2 -23 12 -43t25 -35q24 -24 48 -24h166v-151h-165q-57 0 -105.5 16t-87.5 45
q-38 -29 -86.5 -45t-105.5 -16h-181v151h182q24 0 48 24q31 31 36 78v594h215z" />
    <glyph glyph-name="uniFEEB" unicode="&#x639;" horiz-adv-x="1495" arabic-form="final" 
d="M809 130q-48 -48 -105.5 -70t-117.5 -22q-43 0 -82 10l-313 82h-221v151h133v384q0 99 33 174.5t87 126.5t123.5 77t143.5 26q14 0 27 -1t27 -3q23 1 48 1h52q72 0 154 -6t163.5 -25t157.5 -55.5t135.5 -97.5t97.5 -150.5t43 -214.5v-138q0 -52 -22 -97.5t-60 -79
t-89.5 -53t-109.5 -19.5h-305zM318 257l256 -67q3 -1 9 -1q16 0 31.5 11.5t27.5 28t19 35.5q6 17 6 30v4l-1 349q-2 61 -16 111.5t-38 85.5t-55.5 54.5t-66.5 19.5q-31 0 -62 -17t-55.5 -49.5t-39.5 -79.5t-15 -107v-408zM880 281l234 -1q11 0 23 8.5t22 22.5t16 32t6 36
l-1 175q-9 90 -44 152.5t-86.5 103t-114.5 62.5t-128 32q32 -49 51.5 -112.5t21.5 -142.5v-368z" />
    <glyph glyph-name="uniFEEC" unicode="&#x639;" horiz-adv-x="1471" arabic-form="initial" 
d="M1501 130h-692q-48 -48 -105.5 -70t-117.5 -22q-43 0 -82 10l-313 82h-221v151h133v384q0 99 33 174.5t87 126.5t123.5 77t143.5 26q14 0 27 -1t27 -3q23 1 48 1h52q72 0 154 -6t163.5 -25t157.5 -55.5t135.5 -97.5t97.5 -150.5t43 -214.5v-138q0 -52 -23 -98h129v-151z
M318 257l256 -67q3 -1 9 -1q16 0 31.5 11.5t27.5 28t19 35.5q6 17 6 30v4l-1 349q-2 61 -16 111.5t-38 85.5t-55.5 54.5t-66.5 19.5q-31 0 -62 -17t-55.5 -49.5t-39.5 -79.5t-15 -107v-408zM880 281l234 -1q11 0 23 8.5t22 22.5t16 32t6 36l-1 175q-9 90 -44 152.5
t-86.5 103t-114.5 62.5t-128 32q32 -49 51.5 -112.5t21.5 -142.5v-368z" />
    <glyph glyph-name="uniFEEE" unicode="&#x639;" horiz-adv-x="991" arabic-form="medial" 
d="M1021 130h-142q-5 -82 -23.5 -145t-48 -111t-70 -82t-88.5 -57q-49 -24 -102 -37t-109 -19t-115 -7t-119 -1v150q48 0 93.5 0.5t87.5 4.5t78 11.5t65 21.5q28 13 51 35t41 54t29 76.5t15 103.5q-94 1 -168 9.5t-131.5 24.5t-100.5 40t-74 56q-34 35 -52.5 76.5t-27 90
t-9.5 104.5v120q1 73 18.5 133.5t46.5 108t67.5 82t82.5 56.5q80 39 171 39h9q94 0 177 -42q43 -22 81 -55.5t65.5 -79t43.5 -102.5t16 -124v-384h142v-151zM664 665q0 95 -33.5 154.5t-83.5 85.5q-28 13 -54 14q-24 0 -53 -13q-51 -26 -86.5 -89.5t-37.5 -169.5
q-1 -36 -1 -68q0 -17 1 -32q0 -46 5 -84.5t16 -68.5t31 -51q31 -32 101 -48t195 -17v387z" />
    <glyph glyph-name="uniFEF2" unicode="&#x63a;" horiz-adv-x="1254" arabic-form="final" 
d="M368 463q-52 -153 -52 -270v-17q4 -123 50 -208q26 -48 60.5 -82t76.5 -57q39 -21 81.5 -32t84.5 -12h10q70 0 134 26q68 27 114 82q21 24 34 53q11 24 15 52q1 8 1 16q0 20 -6 40q-8 31 -29 63t-61 66q-32 27 -77.5 54t-107.5 55l111 128l4 -1l2 -1q32 -13 61 -26
t56 -25q41 -19 78.5 -34.5t78 -27t88 -18t109.5 -6.5v-151q-34 0 -64 1.5t-57 3.5q7 -14 12 -27.5t8 -27.5q8 -33 8 -63q0 -16 -2 -31q-6 -45 -23 -84q-21 -46 -54 -84q-39 -47 -89 -81.5t-108.5 -57.5t-121.5 -34q-59 -10 -119 -10h-11q-76 2 -150.5 20.5t-141.5 55.5
q-64 35 -117 85.5t-89 118.5q-28 52 -44.5 114.5t-18.5 135.5v18q0 65 12 138q13 83 46 177zM704 -612q0 23 9 43t24 35t35 23.5t43 8.5q22 0 41.5 -8.5t34 -23.5t23 -35t8.5 -43t-8.5 -42.5t-23 -34t-34 -23t-41.5 -8.5q-23 0 -43 8.5t-35 23t-24 34t-9 42.5zM443 -612
q0 23 9 43t24 35t34.5 23.5t41.5 8.5t42 -8.5t35 -23.5t23.5 -35t8.5 -43t-8.5 -42.5t-23.5 -34t-35 -23t-42 -8.5t-41.5 8.5t-34.5 23t-24 34t-9 42.5z" />
    <glyph glyph-name="uniFEF3" unicode="&#x63a;" horiz-adv-x="631" arabic-form="initial" 
d="M217 -201q0 23 9 43t24 35t35 23.5t43 8.5q22 0 41.5 -8.5t34 -23.5t23 -35t8.5 -43t-8.5 -42.5t-23 -34t-34 -23t-41.5 -8.5q-23 0 -43 8.5t-35 23t-24 34t-9 42.5zM-44 -201q0 23 9 43t24 35t34.5 23.5t41.5 8.5t42 -8.5t35 -23.5t23.5 -35t8.5 -43t-8.5 -42.5
t-23.5 -34t-35 -23t-42 -8.5t-41.5 8.5t-34.5 23t-24 34t-9 42.5zM531 977v-579q0 -52 -20.5 -98t-55.5 -81q-42 -42 -98.5 -65.5t-125.5 -23.5h-261v151h262q24 0 48 24q17 17 27 40.5t10 52.5h-1v579h215z" />
    <glyph glyph-name="uniFEF4" unicode="&#x63a;" horiz-adv-x="671" arabic-form="medial" 
d="M351 -175q0 23 9 43t24 35t35 23.5t43 8.5q22 0 41.5 -8.5t34 -23.5t23 -35t8.5 -43t-8.5 -42.5t-23 -34t-34 -23t-41.5 -8.5q-23 0 -43 8.5t-35 23t-24 34t-9 42.5zM90 -175q0 23 9 43t24 35t34.5 23.5t41.5 8.5t42 -8.5t35 -23.5t23.5 -35t8.5 -43t-8.5 -42.5
t-23.5 -34t-35 -23t-42 -8.5t-41.5 8.5t-34.5 23t-24 34t-9 42.5zM451 977v-579q0 -10 -1 -15q2 -23 12 -43t25 -35q24 -24 48 -24h166v-151h-165q-57 0 -105.5 16t-87.5 45q-38 -29 -86.5 -45t-105.5 -16h-181v151h182q24 0 48 24q31 31 36 78v594h215z" />
    <glyph glyph-name="uniFEF6" unicode="&#x641;" horiz-adv-x="1058" arabic-form="final" 
d="M411 1367v-1086h247q23 0 47 24q17 17 27.5 40.5t10.5 52.5v969h214v-969q0 -32 -8 -61.5t-22 -55.5h161v-151h-1042v151h151v1086h214zM24 1557l417 60l-21 -107l-417 -60z" />
    <glyph glyph-name="uniFEF7" unicode="&#x641;" arabic-form="initial" 
d="M368 1367v-1086h247q23 0 47 24q17 17 27.5 40.5t10.5 52.5v969h214v-969q0 -52 -20.5 -98t-55.5 -81q-42 -42 -99 -65.5t-125 -23.5h-611v151h151v1086h214zM414 1522l-311 -26l-12 85l89 5q-18 24 -30 39t-16 29q-3 8 -3 17q0 6 1 13q3 15 15 40q14 32 44 46.5t68 19.5
q19 2 38 2h25q31 -3 58 -8l-21 -81q-21 4 -43 6q-11 1 -21 1t-20 -1q-36 -4 -41 -15q-2 -4 -2 -9q0 -8 7 -18q9 -16 27 -34t29 -36l107 10z" />
    <glyph glyph-name="uniFEF8" unicode="&#x641;" horiz-adv-x="1028" arabic-form="medial" 
d="M381 1367v-1086h247q23 0 47 24q17 17 27.5 40.5t10.5 52.5v969h214v-969q0 -32 -8 -61.5t-22 -55.5h161v-151h-1042v151h151v1086h214zM427 1528l-311 -26l-12 85l89 5q-18 24 -30 39t-16 29q-3 8 -3 17q0 6 1 13q3 15 15 40q14 32 44 46.5t68 19.5q19 2 38 2h25
q31 -3 58 -8l-21 -81q-21 4 -43 6q-11 1 -21 1t-20 -1q-36 -4 -41 -15q-2 -4 -2 -9q0 -8 7 -18q9 -16 27 -34t29 -36l107 10z" />
    <glyph glyph-name="uniFEFA" unicode="&#x642;" horiz-adv-x="1037" arabic-form="final" 
d="M390 1367v-1086h247q23 0 47 24q17 17 27.5 40.5t10.5 52.5v969h214v-969q0 -32 -8 -61.5t-22 -55.5h161v-151h-1042v151h151v1086h214zM339 -229l-311 -26l-12 85l89 5q-18 24 -30 39t-16 29q-3 8 -3 17q0 6 1 13q3 15 15 40q14 32 44 46.5t68 19.5q19 2 38 2h25
q31 -3 58 -8l-21 -81q-21 4 -43 6q-11 1 -21 1t-20 -1q-36 -4 -41 -15q-2 -4 -2 -9q0 -8 7 -18q9 -16 27 -34t29 -36l107 10z" />
    <glyph glyph-name="uniFEFB" unicode="&#x642;" horiz-adv-x="1027" arabic-form="initial" 
d="M381 1367v-1086h247q23 0 47 24q17 17 27.5 40.5t10.5 52.5v969h214v-969q0 -52 -20.5 -98t-55.5 -81q-42 -42 -99 -65.5t-125 -23.5h-611v151h151v1086h214z" />
    <glyph glyph-name="uniFEFC" unicode="&#x642;" horiz-adv-x="1028" arabic-form="medial" 
d="M381 1367v-1086h247q23 0 47 24q17 17 27.5 40.5t10.5 52.5v969h214v-969q0 -32 -8 -61.5t-22 -55.5h161v-151h-1042v151h151v1086h214z" />
    <glyph glyph-name=".notdef" horiz-adv-x="1024" 
d="M100 0v1434h824v-1434h-824zM150 50h724v1334h-724v-1334zM325 1148q31 28 58 43q53 30 112 30q92 0 148 -47.5t56 -127.5q0 -49 -23 -98.5t-87 -129.5q-63 -80 -99 -132t-36 -99q0 -38 24 -133h-32q-35 97 -35 148q0 76 81.5 218t81.5 217q0 57 -33 90t-91 33
q-38 0 -69 -17q-26 -15 -56 -40v45zM389 334l57 58q11 10 20 10q10 0 22 -11l56 -60q9 -11 9 -20q0 -11 -10 -22l-56 -62q-14 -14 -21 -14q-11 0 -20 10l-61 71q-7 9 -7 18q0 10 11 22z" />
    <glyph glyph-name=".null" horiz-adv-x="0" 
 />
    <glyph glyph-name="nonmarkingreturn" horiz-adv-x="508" 
 />
    <glyph glyph-name="space" unicode=" " horiz-adv-x="508" 
 />
    <glyph glyph-name="space" unicode="&#xa0;" horiz-adv-x="508" 
 />
    <glyph glyph-name="exclam" unicode="!" horiz-adv-x="727" 
d="M474 1367v-739l-138 -179q-35 35 -55.5 81t-20.5 98v739h214zM255 249q0 23 9 43t24 35t34.5 23.5t41.5 8.5t42 -8.5t35 -23.5t23.5 -35t8.5 -43t-8.5 -42.5t-23.5 -34t-35 -23t-42 -8.5t-41.5 8.5t-34.5 23t-24 34t-9 42.5z" />
    <glyph glyph-name="quotedbl" unicode="&#x22;" horiz-adv-x="603" 
d="M131 1365h133v-451h-133v451zM349 1365h133v-451h-133v451z" />
    <glyph glyph-name="numbersign" unicode="#" horiz-adv-x="1370" 
d="M843 896h-226l-81 -229h227zM804 1418l-141 -395h223l142 395h143l-139 -395h262l-45 -127h-263l-81 -227h280l-44 -128h-281l-141 -394h-143l140 394h-224l-141 -394h-144l138 394h-268l46 128h269l80 227h-287l45 127h289l140 395h145z" />
    <glyph glyph-name="dollar" unicode="$" horiz-adv-x="1020" 
d="M559 263q116 11 178.5 71.5t62.5 161.5q0 90 -56.5 144.5t-184.5 84.5v-462zM464 913v412q-100 0 -159.5 -55.5t-59.5 -149.5q0 -87 53 -138t166 -69zM464 -44v169q-204 15 -306.5 118.5t-102.5 293.5v21h162v-15q0 -123 64.5 -194.5t182.5 -78.5v479
q-191 32 -286.5 121.5t-95.5 236.5q0 158 102.5 256t279.5 107v129h95v-129q183 -15 280 -105t99 -245h-164q-11 97 -64.5 147.5t-150.5 56.5v-426q230 -50 321.5 -136t91.5 -246q0 -166 -106.5 -267t-306.5 -122v-171h-95z" />
    <glyph glyph-name="percent" unicode="%" horiz-adv-x="1066" 
d="M399 31l-122 107l314 1318l138 -90zM91 1031q0 23 9 43t24 35t34.5 23.5t41.5 8.5t42 -8.5t35 -23.5t23.5 -35t8.5 -43t-8.5 -42.5t-23.5 -34t-35 -23t-42 -8.5t-41.5 8.5t-34.5 23t-24 34t-9 42.5zM697 498q0 23 9 43t24 35t34.5 23.5t41.5 8.5t42 -8.5t35 -23.5
t23.5 -35t8.5 -43t-8.5 -42.5t-23.5 -34t-35 -23t-42 -8.5t-41.5 8.5t-34.5 23t-24 34t-9 42.5z" />
    <glyph glyph-name="ampersand" unicode="&#x26;" horiz-adv-x="1294" 
d="M575 1006q98 61 144.5 124.5t46.5 136.5t-45 118t-119 45q-82 0 -128 -44t-46 -121q0 -56 35 -118.5t112 -140.5zM510 832q-127 -73 -182.5 -143.5t-55.5 -159.5q0 -108 72.5 -178.5t184.5 -70.5q83 0 160 40.5t146 119.5zM418 945q-79 85 -116 161t-37 153
q0 135 92 221.5t237 86.5q152 0 240.5 -79t88.5 -213q0 -110 -62 -198t-195 -167l257 -314q24 44 37.5 100t19.5 129h161q0 -102 -26.5 -191.5t-78.5 -170.5l258 -310h-230l-135 166q-83 -99 -189.5 -149t-233.5 -50q-182 0 -296.5 112t-114.5 286q0 131 75 231t248 196z
" />
    <glyph glyph-name="quotesingle" unicode="'" horiz-adv-x="384" 
d="M131 1365h133v-451h-133v451z" />
    <glyph glyph-name="parenleft" unicode="(" horiz-adv-x="533" 
d="M467 1589q-57 -121 -95.5 -252.5t-58 -268.5t-19.5 -277q0 -139 19 -276t57.5 -268.5t96.5 -252.5h-100q-141 209 -209 407q-68 193 -68 384q0 4 1 8q1 195 71 392t206 404h99z" />
    <glyph glyph-name="parenright" unicode=")" horiz-adv-x="533" 
d="M179 1589q136 -207 206 -404t72 -392v-8q0 -191 -67 -384q-69 -198 -210 -407h-100q58 121 96.5 252.5t57.5 268.5t19 276q0 140 -19.5 277t-58 268.5t-95.5 252.5h99z" />
    <glyph glyph-name="asterisk" unicode="*" horiz-adv-x="891" 
d="M444 976l-152 -219l-121 81l171 213l-247 68l44 138l239 -82v257h134v-257l236 82l48 -138l-251 -68l173 -211l-119 -88z" />
    <glyph glyph-name="plus" unicode="+" horiz-adv-x="1484" 
d="M804 1212v-470h459v-121h-459v-471h-124v471h-459v121h459v470h124z" />
    <glyph glyph-name="comma" unicode="," horiz-adv-x="488" 
d="M155 150v192h178v-208q0 -98 -46.5 -162.5t-131.5 -85.5v89q42 9 65 47.5t23 100.5v27h-88z" />
    <glyph glyph-name="hyphen" unicode="-" horiz-adv-x="884" 
d="M119 477l57 197l590 -2l-57 -195h-590z" />
    <glyph glyph-name="hyphen" unicode="&#xad;" horiz-adv-x="884" 
d="M119 477l57 197l590 -2l-57 -195h-590z" />
    <glyph glyph-name="period" unicode="." horiz-adv-x="618" 
d="M205 249q0 23 9 43t24 35t34.5 23.5t41.5 8.5t42 -8.5t35 -23.5t23.5 -35t8.5 -43t-8.5 -42.5t-23.5 -34t-35 -23t-42 -8.5t-41.5 8.5t-34.5 23t-24 34t-9 42.5z" />
    <glyph glyph-name="slash" unicode="/" horiz-adv-x="654" 
d="M264 177l-167 -138l314 1318l183 155z" />
    <glyph glyph-name="zero" unicode="0" horiz-adv-x="1019" 
d="M66 717q0 154 30 274t93 208q59 88 139 130.5t181 42.5q203 0 320 -171q123 -176 123 -484q0 -152 -31.5 -274.5t-91.5 -210.5q-59 -82 -140.5 -126.5t-179.5 -44.5q-202 0 -320 173q-63 88 -93 209t-30 274zM314 717q0 -242 48.5 -356t146.5 -114t147 115.5t49 354.5
q0 238 -49 355t-147 117t-146.5 -115t-48.5 -357z" />
    <glyph glyph-name="one" unicode="1" horiz-adv-x="1019" 
d="M478 85v1031l-240 -166l-68 162l286 239h257v-1266h-235z" />
    <glyph glyph-name="two" unicode="2" horiz-adv-x="1019" 
d="M927 85h-827l10 189q42 46 97 98t112 108t112.5 115t99.5 118.5t71.5 119t29.5 117.5v11q0 56 -18 96q-21 44 -57 71t-84 37q-30 6 -62 6q-19 0 -38 -2q-52 -6 -105 -26.5t-100 -54.5l-75 169q94 61 188 89t197 28q75 0 139 -21t114.5 -58t86 -87.5t53.5 -108.5
q16 -53 16 -112v-10q-2 -64 -25 -127q-30 -81 -87.5 -159t-127.5 -149.5t-143 -134.5t-134 -114h557v-208z" />
    <glyph glyph-name="three" unicode="3" horiz-adv-x="1019" 
d="M435 61q-107 0 -187.5 18t-144.5 56l48 150q56 -27 108 -39t106 -12h12q91 0 152 28q65 29 94 75q24 38 24 81q0 9 -1 19q-6 53 -49 100t-122.5 79t-196.5 34l-8 154q48 6 106.5 22.5t110.5 44.5t87.5 68.5t37.5 94.5v5q0 44 -18 76q-19 33 -51 54t-74 30q-38 8 -78 8h-9
q-46 -1 -91 -11.5t-83 -29.5l-60 151q35 18 83.5 30.5t103.5 19.5q51 6 105 6h9q58 -1 112 -10.5t100.5 -28t77.5 -48.5q66 -65 89 -138q13 -41 13 -81q0 -33 -8 -64q-19 -72 -78 -135t-157 -106q279 -110 279 -344q0 -81 -28.5 -145.5t-88.5 -112.5q-117 -99 -325 -99z" />
    <glyph glyph-name="four" unicode="4" horiz-adv-x="1019" 
d="M587 85v296h-547v214q157 195 310 386t310 386h148v-771h126v-215h-126v-296h-221zM588 596l4 439l-361 -439h357z" />
    <glyph glyph-name="five" unicode="5" horiz-adv-x="1019" 
d="M197 260q41 -14 81.5 -20t82.5 -6q89 0 151 20t100 53.5t55 76.5t17 88q0 56 -18.5 94.5t-51.5 63t-78.5 38t-100 20t-116 7t-127.5 0.5l-2 656h652v-198h-453v-249q126 0 224.5 -28.5t167 -83.5t103.5 -135q34 -79 34 -179v-6q-2 -101 -43 -178t-109.5 -128.5t-157 -78
t-184.5 -26.5q-81 0 -148.5 10t-124.5 31z" />
    <glyph glyph-name="six" unicode="6" horiz-adv-x="1019" 
d="M539 265q48 0 85.5 20.5t62 51.5t36.5 67q10 29 10 54q0 7 -1 13q-5 46 -26 84t-54 65.5t-74 44.5t-84 21q-12 1 -24 1q-32 0 -63 -7q-44 -11 -81 -38q-13 -51 -13 -102q0 -17 1 -33q6 -68 34 -121.5t76 -87t115 -33.5zM95 520q0 114 37 232t105 229t163.5 209.5
t213.5 173.5q7 -8 11 -13.5t8 -10.5t8 -10.5t10 -12.5v1q18 -23 35 -45.5t36 -45.5q-240 -157 -328 -364q55 23 116 27h24q49 0 97 -11q60 -15 114.5 -47.5t96 -82.5t66 -117t24.5 -149q0 -92 -31 -169.5t-86.5 -133t-132 -86.5t-168.5 -31q-101 0 -179.5 33.5t-131.5 94.5
t-80.5 144.5t-27.5 184.5z" />
    <glyph glyph-name="seven" unicode="7" horiz-adv-x="1019" 
d="M255 131l388 1027h-552v193h795l-8 -193l-421 -1104z" />
    <glyph glyph-name="eight" unicode="8" horiz-adv-x="1019" 
d="M509 1372q90 0 162.5 -35t121 -91t71.5 -125q15 -49 15 -97q0 -20 -2 -40q-10 -68 -54.5 -129t-129.5 -99q125 -55 187.5 -138.5t62.5 -189.5q0 -83 -30.5 -150t-86.5 -118v1q-59 -48 -138 -74t-179 -26q-101 0 -180.5 26t-138.5 74v-1q-55 51 -85 119t-30 149
q0 53 16 100.5t45.5 88t69.5 72.5t88 53q-76 45 -117.5 109.5t-51.5 134.5q-4 24 -4 48q0 46 13 92q20 69 69.5 124t126 88.5t179.5 33.5zM502 628q-64 0 -107 -28.5t-65.5 -71t-23.5 -91.5q-1 -4 -1 -8q0 -45 18 -85q19 -43 59 -72.5t101 -31.5h17q40 0 74 8q41 9 70 32
t45 62.5t16 99.5q0 8 -2.5 25t-10 38t-21.5 42.5t-36.5 39.5t-55 29.5t-77.5 11.5zM328 1020q0 -36 22.5 -71.5t53.5 -62.5t64 -41q21 -9 38 -9q8 0 15 2q31 11 64 33t56 54t29 75q1 8 1 17q0 35 -19 77q-20 32 -52 52.5t-68 28.5q-21 4 -41 4q-16 0 -31 -2
q-36 -6 -65.5 -25t-48 -52t-18.5 -80z" />
    <glyph glyph-name="nine" unicode="9" horiz-adv-x="1019" 
d="M487 1163q-48 0 -85.5 -20.5t-62 -51.5t-35.5 -67q-10 -29 -10 -55q0 -7 1 -13q4 -46 25.5 -83.5t54 -65.5t73.5 -45t85 -20q11 -1 22 -1q33 0 65 8q43 10 80 37q14 50 14 101q0 17 -2 34q-6 67 -33.5 121t-76 87.5t-115.5 33.5zM932 908q0 -114 -37 -232t-105 -229.5
t-164 -210t-214 -172.5q-13 16 -18.5 24t-17.5 23v-1q-19 23 -35.5 45t-36.5 45q121 79 202.5 170t125.5 194q-55 -23 -116 -26q-12 -1 -23 -1q-49 0 -97 12q-60 15 -114.5 47.5t-96 82.5t-66 116.5t-24.5 148.5q0 93 31 170t86 133t131.5 87t168.5 31q102 0 180 -33.5
t131.5 -94.5t81 -145t27.5 -184z" />
    <glyph glyph-name="colon" unicode=":" horiz-adv-x="505" 
d="M133 294q0 23 9 43t24 35t34.5 23.5t41.5 8.5t42 -8.5t35 -23.5t23.5 -35t8.5 -43t-8.5 -42.5t-23.5 -34t-35 -23t-42 -8.5t-41.5 8.5t-34.5 23t-24 34t-9 42.5zM133 794q0 23 9 43t24 35t34.5 23.5t41.5 8.5t42 -8.5t35 -23.5t23.5 -35t8.5 -43t-8.5 -42.5t-23.5 -34
t-35 -23t-42 -8.5t-41.5 8.5t-34.5 23t-24 34t-9 42.5z" />
    <glyph glyph-name="less" unicode="&#x3c;" horiz-adv-x="1484" 
d="M1255 1025l-843 -344l843 -342v-134l-1025 421v112l1025 420v-133z" />
    <glyph glyph-name="equal" unicode="=" horiz-adv-x="1484" 
d="M1263 568v-120h-1042v120h1042zM1263 915v-122h-1042v122h1042z" />
    <glyph glyph-name="greater" unicode="&#x3e;" horiz-adv-x="1484" 
d="M1255 738v-112l-1025 -421v134l844 342l-844 344v133z" />
    <glyph glyph-name="at" unicode="@" horiz-adv-x="1782" 
d="M1117 893l50 100h115l-128 -501q-3 -14 -4.5 -27t-1.5 -24q0 -40 22 -61t65 -21q41 0 88.5 23t92.5 66q70 66 109 162t39 203q0 225 -165.5 365t-434.5 140q-116 0 -214 -24t-184 -75q-166 -99 -257.5 -260.5t-91.5 -356.5q0 -154 54 -268t167 -200q87 -67 206 -103
t250 -36q147 0 286 42.5t255 122.5l47 -71q-128 -96 -273 -145t-304 -49q-166 0 -303 41t-244 122q-134 102 -200 238t-66 308q0 144 45.5 272.5t131.5 233.5q127 155 305.5 235t396.5 80q142 0 270 -39t220 -110q113 -87 171.5 -201t58.5 -246q0 -153 -55 -274.5
t-160 -205.5q-60 -47 -130.5 -72t-144.5 -25q-87 0 -130.5 34.5t-43.5 101.5v17q-48 -78 -112.5 -114.5t-149.5 -36.5q-133 0 -203 73.5t-70 214.5q0 205 120 343t295 138q73 0 126 -32.5t84 -97.5zM1035 563l52 206q-15 76 -60 118t-113 42q-120 0 -201.5 -113.5
t-81.5 -277.5q0 -91 42 -141t120 -50q84 0 151.5 60.5t90.5 155.5z" />
    <glyph glyph-name="A" unicode="A" horiz-adv-x="1188" 
d="M517 1449h190l467 -1297h-196l-130 386h-499l-140 -386h-192zM606 1255l-200 -569h388z" />
    <glyph glyph-name="B" unicode="B" horiz-adv-x="1188" 
d="M304 899h313q131 0 196 45q71 51 71 165q0 94 -62.5 141.5t-202.5 47.5h-315v-399zM132 1448h563q172 0 271 -96q90 -90 90 -231q0 -78 -31 -141q-44 -85 -139 -131q100 -40 146 -86q85 -85 85 -229q0 -165 -110 -270q-120 -114 -325 -114h-550v1298zM304 301h369
q134 0 202.5 62t68.5 174q0 123 -96 178q-75 41 -203 41h-341v-455z" />
    <glyph glyph-name="C" unicode="C" horiz-adv-x="1286" 
d="M1212 1044h-184q-16 70 -34 105t-57 72q-96 90 -264 90q-197 0 -307.5 -135t-110.5 -380q0 -234 107 -369.5t296 -135.5q151 0 248 89t122 253h184q-25 -173 -111 -291q-157 -215 -438 -215q-277 0 -437 176.5t-160 482.5q0 364 205 544q91 78 182 112t215 34
q232 0 379 -116t165 -316z" />
    <glyph glyph-name="D" unicode="D" horiz-adv-x="1286" 
d="M157 1449h438q165 0 247.5 -18t155.5 -73q226 -171 226 -543q0 -220 -84 -386.5t-229 -232.5q-54 -23 -123 -33.5t-177 -10.5h-454v1297zM337 1287v-972h262q181 0 265 58q173 119 173 445q0 162 -55 275t-157 160q-70 34 -232 34h-256z" />
    <glyph glyph-name="E" unicode="E" horiz-adv-x="1188" 
d="M157 1449h935v-162h-755v-382h698v-163h-698v-427h764v-163h-944v1297z" />
    <glyph glyph-name="F" unicode="F" horiz-adv-x="1188" 
d="M157 1449h935v-162h-755v-382h698v-163h-698v-427l-1 -163h-179v1297z" />
    <glyph glyph-name="G" unicode="G" horiz-adv-x="1386" 
d="M1219 1048h-184q-20 68 -38.5 103.5t-54.5 71.5q-90 88 -262 88q-202 0 -314.5 -135t-112.5 -380q0 -236 113 -370.5t313 -134.5q207 0 315 150q41 54 59 109.5t18 151.5h-405v148h567v-690h-114l-43 158q-89 -102 -184.5 -146.5t-226.5 -44.5q-273 0 -436 180.5
t-163 483.5q0 314 167.5 499.5t450.5 185.5q271 0 410 -158q52 -58 78.5 -116t46.5 -154z" />
    <glyph glyph-name="H" unicode="H" horiz-adv-x="1286" 
d="M157 1449h180v-531h615v531h182v-1297h-182v602h-615v-602h-180v1297z" />
    <glyph glyph-name="I" unicode="I" horiz-adv-x="483" 
d="M157 1449h180v-1297h-180v1297z" />
    <glyph glyph-name="J" unicode="J" horiz-adv-x="891" 
d="M27 585h178q0 -104 7 -147.5t32 -76.5q48 -70 148 -70q89 0 140 66q24 30 32.5 74t8.5 131v889h182v-889q0 -201 -63 -293q-49 -68 -128 -105t-176 -37q-96 0 -173.5 35.5t-124.5 97.5q-39 55 -51 119.5t-12 205.5z" />
    <glyph glyph-name="K" unicode="K" horiz-adv-x="1188" 
d="M157 1451h180v-631l613 631h240l-524 -529l522 -770h-215l-429 650l-207 -198v-452h-180v1299z" />
    <glyph glyph-name="L" unicode="L" horiz-adv-x="990" 
d="M157 1449h180v-1134h656v-163h-836v1297z" />
    <glyph glyph-name="M" unicode="M" horiz-adv-x="1466" 
d="M116 152v1296h219l406 -1077l394 1077h219v-1296h-159v1039l-379 -1039h-146l-396 1039v-1039h-158z" />
    <glyph glyph-name="N" unicode="N" horiz-adv-x="1286" 
d="M157 1449h201l594 -1019v1019h182v-1297h-204l-593 1028v-1028h-180v1297z" />
    <glyph glyph-name="O" unicode="O" horiz-adv-x="1386" 
d="M66 788q0 317 169.5 502.5t463.5 185.5q287 0 456 -178.5t169 -482.5q0 -337 -210 -537q-164 -151 -424 -151q-285 0 -454.5 179t-169.5 482zM255 793q0 -233 118.5 -367.5t325.5 -134.5q206 0 322 137t116 385q0 235 -116 366.5t-322 131.5q-213 0 -328.5 -135
t-115.5 -383z" />
    <glyph glyph-name="P" unicode="P" horiz-adv-x="1122" 
d="M311 854h293q152 0 212.5 49.5t60.5 169.5q0 115 -60 165.5t-200 50.5h-306v-435zM137 150v1298h472q115 0 175 -11.5t107 -38.5q78 -42 120 -127t42 -198q0 -109 -42 -192t-122 -132q-46 -28 -108 -40t-205 -12h-265v-547h-174z" />
    <glyph glyph-name="Q" unicode="Q" horiz-adv-x="1356" 
d="M887 324l-146 116l89 107l177 -138q63 64 95.5 164.5t32.5 226.5q0 243 -117 379t-325 136q-209 0 -327 -136t-118 -379t118 -379.5t327 -136.5q55 0 103 9.5t91 30.5zM1033 208q-78 -41 -162 -61t-178 -20q-296 0 -464 177t-168 492t168 492t464 177q294 0 461.5 -177.5
t167.5 -491.5q0 -154 -42.5 -277t-130.5 -222l160 -128l-88 -108z" />
    <glyph glyph-name="R" unicode="R" horiz-adv-x="1286" 
d="M157 1449h540q121 0 184 -8.5t113 -35.5q169 -90 169 -313q0 -114 -43.5 -182t-139.5 -114q96 -33 129 -93t33 -202v-150q0 -106 50 -187l9 -12h-214q-16 51 -23 97.5t-7 87.5v162q0 110 -52 159q-28 28 -72 37t-147 9h-349v-552h-180v1297zM337 1287v-419h340
q96 0 135.5 6.5t73.5 25.5q90 49 90 177q0 66 -26.5 114.5t-78 72t-179.5 23.5h-355z" />
    <glyph glyph-name="S" unicode="S" horiz-adv-x="1188" 
d="M80 585h187v-37q0 -70 14.5 -106.5t53.5 -68.5q93 -82 274 -82q144 0 231 56t87 150q0 54 -31.5 107t-118.5 84l-400 100q-247 90 -247 299v20q0 76 27 136q30 67 87 121q123 112 349 112q254 0 381 -134q49 -51 69.5 -102t20.5 -140l3 -43h-188q0 60 -7.5 90.5
t-24.5 58.5q-33 49 -102.5 77t-154.5 28q-121 0 -198 -55q-73 -52 -73 -143v-10q0 -55 29.5 -87.5t109.5 -60.5l415 -106q239 -85 239 -317v-17q0 -80 -32.5 -149.5t-97 -125.5t-157 -84.5t-223.5 -28.5q-257 0 -389.5 106t-132.5 313v39z" />
    <glyph glyph-name="T" unicode="T" horiz-adv-x="1088" 
d="M29 1449h1038v-162h-431v-1135h-180v1135h-427v162z" />
    <glyph glyph-name="U" unicode="U" horiz-adv-x="1286" 
d="M139 1451h182v-809q0 -86 12 -138.5t45 -93.5q40 -55 112.5 -87t157.5 -32q172 0 260 119q32 44 46.5 95t14.5 131v815h182v-816q0 -107 -19.5 -178.5t-70.5 -141.5q-140 -188 -418 -188q-288 0 -424 187q-30 45 -47 89.5t-25 106.5t-8 112v829z" />
    <glyph glyph-name="V" unicode="V" horiz-adv-x="1088" 
d="M456 150l-456 1298h180l369 -1087l358 1087h181l-450 -1298h-182z" />
    <glyph glyph-name="W" unicode="W" horiz-adv-x="1682" 
d="M14 1449h193l196 -775l48 -260q30 142 39.5 182t21.5 78l231 775h185l230 -775q16 -46 34 -130l30 -130q11 67 22.5 133t27.5 127l204 775h194l-355 -1297h-181l-301 1052l-295 -1052h-189z" />
    <glyph glyph-name="X" unicode="X" horiz-adv-x="1078" 
d="M0 150l440 665l-417 633h214l305 -480l310 480h202l-416 -630l440 -668h-214l-330 525l-322 -525h-212z" />
    <glyph glyph-name="Y" unicode="Y" horiz-adv-x="1188" 
d="M2 1449h226l376 -615l370 615h216l-498 -786v-511h-184v511z" />
    <glyph glyph-name="Z" unicode="Z" horiz-adv-x="1088" 
d="M43 310l783 977h-726v162h951v-157l-787 -977h787v-163h-1008v158z" />
    <glyph glyph-name="bracketleft" unicode="[" horiz-adv-x="631" 
d="M216 -207v1639h347v-122h-191v-1395h191v-122h-347z" />
    <glyph glyph-name="bracketright" unicode="]" horiz-adv-x="631" 
d="M415 1432v-1639h-347v122h190v1395h-190v122h347z" />
    <glyph glyph-name="underscore" unicode="_" horiz-adv-x="1024" 
d="M0 -100h1024v-60h-1024v60z" />
    <glyph glyph-name="a" unicode="a" horiz-adv-x="990" 
d="M119 806q0 70 12 107t42 80q96 133 326 133q232 0 317 -114q46 -58 46 -185v-453q0 -98 58 -98l47 4v-125q-37 -12 -57.5 -15.5t-43.5 -3.5q-133 0 -152 144q-138 -153 -326 -153q-140 0 -224 76.5t-84 206.5q0 180 158 253q106 50 371 80l95 13v46q0 45 -5.5 69.5
t-21.5 44.5q-51 64 -178 64q-132 0 -181 -73q-17 -21 -23 -42.5t-6 -58.5h-170zM702 628q-63 -9 -116.5 -17.5t-131.5 -25.5q-110 -25 -154.5 -61.5t-44.5 -104.5t45 -106.5t125 -38.5q115 0 196 65.5t81 155.5v133z" />
    <glyph glyph-name="b" unicode="b" horiz-adv-x="1059" 
d="M272 628q0 -175 72.5 -270.5t206.5 -95.5q130 0 206 93t76 253q0 180 -73.5 277t-207.5 97q-140 0 -210 -88.5t-70 -265.5zM123 150v1298h155v-485q54 80 131 120.5t175 40.5q188 0 301.5 -137.5t113.5 -367.5q0 -227 -112.5 -362.5t-300.5 -135.5q-101 0 -175 36
t-133 112v-119h-155z" />
    <glyph glyph-name="c" unicode="c" horiz-adv-x="891" 
d="M729 490h167q-17 -133 -73 -214q-57 -75 -137 -113t-180 -38q-210 0 -325 127.5t-115 358.5q0 246 114 380.5t323 134.5q167 0 270.5 -93.5t122.5 -260.5h-167q-45 206 -226 206q-125 0 -194 -90t-69 -252q0 -175 68 -269t197 -94q168 0 224 217z" />
    <glyph glyph-name="d" unicode="d" horiz-adv-x="990" 
d="M713 1005v446h164v-1298h-156v121q-70 -85 -130 -116t-147 -31q-172 0 -275 131.5t-103 354.5q0 230 107 372.5t281 142.5q78 0 134.5 -26.5t124.5 -96.5zM483 274q116 0 178 91t62 263q0 168 -62 259t-178 91q-118 0 -180.5 -90t-62.5 -260q0 -172 62.5 -263t180.5 -91z
" />
    <glyph glyph-name="e" unicode="e" horiz-adv-x="990" 
d="M927 574h-689q0 -146 70 -223t197 -77q195 0 238 191h171q-37 -160 -145 -249t-270 -89q-201 0 -317 133.5t-116 367.5q0 258 150 389q122 107 296 107q215 0 333 -154q44 -63 63.5 -138t19.5 -183zM763 722q0 120 -70.5 188t-184.5 68q-228 0 -264 -256h519z" />
    <glyph glyph-name="f" unicode="f" horiz-adv-x="471" 
d="M153 150v807h-153v125h153v137q0 116 52.5 174t158.5 58q16 0 41.5 -3t73.5 -10v-140q-25 4 -42 6t-27 2q-55 0 -77 -30.5t-22 -115.5v-78h168v-125h-168v-807h-158z" />
    <glyph glyph-name="g" unicode="g" horiz-adv-x="990" 
d="M713 975v127h162v-806q0 -121 -9 -191.5t-30 -125.5q-90 -217 -371 -217q-169 0 -257.5 70t-105.5 221h163q20 -78 63.5 -110.5t132.5 -32.5q173 0 214 130q15 46 22 96.5t7 127.5q-61 -73 -123 -105t-146 -32q-173 0 -271 128t-98 354q0 240 99.5 378.5t274.5 138.5
q173 0 273 -151zM240 628q0 -160 64.5 -257t173.5 -97q107 0 170 95.5t63 258.5q0 160 -63 255t-170 95q-109 0 -173.5 -94.5t-64.5 -255.5z" />
    <glyph glyph-name="h" unicode="h" horiz-adv-x="992" 
d="M116 1449h164v-449q65 66 132 96t154 30q182 0 259 -116q27 -39 38.5 -95t11.5 -139v-624h-164v586q0 96 -18 145q-39 95 -162 95q-128 0 -200 -101q-30 -39 -40.5 -85.5t-10.5 -135.5v-504h-164v1297z" />
    <glyph glyph-name="i" unicode="i" horiz-adv-x="395" 
d="M116 1449h164v-185h-164v185zM116 1102h164v-950h-164v950z" />
    <glyph glyph-name="j" unicode="j" horiz-adv-x="395" 
d="M-36 -78q45 -12 66 -12q52 0 69 31t17 125v1036h164v-1061q0 -112 -29 -175q-54 -104 -190 -104h-56q-28 5 -41 7v153zM116 1449h164v-185h-164v185z" />
    <glyph glyph-name="k" unicode="k" horiz-adv-x="891" 
d="M117 1449h165v-734l388 387h217l-365 -352l371 -598h-198l-283 484l-130 -122v-362h-165v1297z" />
    <glyph glyph-name="l" unicode="l" horiz-adv-x="395" 
d="M116 1458h164v-1306h-164v1306z" />
    <glyph glyph-name="m" unicode="m" horiz-adv-x="1529" 
d="M1283 150v588q0 145 -39 198t-136 53q-116 0 -180.5 -72t-64.5 -202v-565h-163v588q0 145 -39.5 198t-135.5 53q-115 0 -180 -73t-65 -201v-565h-161v955h153v-135q54 81 127 120.5t172 39.5q89 0 152 -36.5t109 -113.5q62 77 136 113.5t171 36.5q93 0 161.5 -33.5
t105.5 -97.5q20 -36 29 -87t9 -161v-601h-161z" />
    <glyph glyph-name="n" unicode="n" horiz-adv-x="990" 
d="M116 1102h164v-124q75 85 138 116.5t155 31.5q90 0 155.5 -34t107.5 -99q17 -32 27 -65t10 -78l2 -93v-605h-164v574q0 133 -32 179q-48 73 -155 73q-145 0 -211 -121q-14 -23 -22.5 -52t-8.5 -65l-2 -90v-498h-164v950z" />
    <glyph glyph-name="o" unicode="o" horiz-adv-x="990" 
d="M66 628q0 235 114 366.5t317 131.5t317 -131.5t114 -366.5q0 -234 -114 -367.5t-317 -133.5q-201 0 -316 133t-115 368zM240 628q0 -167 68 -260.5t189 -93.5q123 0 189.5 93.5t66.5 265.5q0 163 -67 254t-189 91q-123 0 -190 -91.5t-67 -258.5z" />
    <glyph glyph-name="p" unicode="p" horiz-adv-x="1059" 
d="M772 629q0 160 -75.5 251t-204.5 91q-130 0 -202.5 -93t-72.5 -261q0 -172 70.5 -265t198.5 -93q137 0 211.5 96t74.5 274zM223 -222h-152v1304h152v-126q55 80 129 118t173 38q187 0 298 -134t111 -359q0 -228 -111 -363t-298 -135q-103 0 -180 39t-122 113v-495z" />
    <glyph glyph-name="q" unicode="q" horiz-adv-x="1059" 
d="M233 629q0 -178 74.5 -274t211.5 -96q128 0 198 93t70 265q0 168 -72 261t-202 93q-129 0 -204.5 -91t-75.5 -251zM782 273q-45 -74 -122 -113t-181 -39q-186 0 -297 135t-111 363q0 225 111 359t297 134q100 0 173.5 -38t129.5 -118v126h152v-1304h-152v495z" />
    <glyph glyph-name="r" unicode="r" horiz-adv-x="592" 
d="M117 1102h165v-158q92 182 231 182h28q11 0 42 -7v-175l-52 5q-135 0 -201 -97q-26 -37 -36 -87t-10 -141v-472h-167v950z" />
    <glyph glyph-name="s" unicode="s" horiz-adv-x="891" 
d="M65 463h173q0 -55 7 -81.5t30 -49.5q57 -58 173 -58q93 0 149 37.5t56 100.5q0 30 -19.5 54t-73.5 48l-299 93q-165 75 -165 243q0 123 97.5 199.5t256.5 76.5q212 0 306 -135q25 -39 34.5 -71t9.5 -95h-167q0 66 -30 97q-58 58 -160 58q-77 0 -128.5 -33.5t-51.5 -82.5
q0 -77 82 -109l278 -86q32 -14 66 -29q12 -5 26 -14q112 -68 112 -192t-92 -211q-102 -96 -289 -96q-185 0 -283 85.5t-98 250.5z" />
    <glyph glyph-name="t" unicode="t" horiz-adv-x="525" 
d="M26 1102h125v233h163v-233h158v-138h-158v-576q0 -68 21 -92.5t83 -24.5l54 2v-139l-27 -1l-95 -6q-148 0 -183 107q-16 42 -16 166v564h-125v138z" />
    <glyph glyph-name="u" unicode="u" horiz-adv-x="990" 
d="M116 1102h164v-603q0 -65 7 -100t24 -62q44 -63 152 -63q122 0 196 102q31 43 41.5 94t10.5 149v483h164v-947h-152v146q-87 -174 -301 -174q-167 0 -247 107q-31 42 -45 102t-14 152v614z" />
    <glyph glyph-name="v" unicode="v" horiz-adv-x="857" 
d="M355 150l-353 955h172l267 -765l261 765h172l-349 -955h-170z" />
    <glyph glyph-name="w" unicode="w" horiz-adv-x="1286" 
d="M14 1102h180l139 -554l39 -186q11 60 19 97.5t19 88.5l144 554h182l141 -547q7 -27 15 -64t24 -120q7 43 16 85q3 20 25 99l146 547h172l-281 -950h-168l-183 731l-185 -731h-167z" />
    <glyph glyph-name="x" unicode="x" horiz-adv-x="869" 
d="M0 150l333 492l-317 463h188l235 -343l230 343h185l-321 -462l342 -493h-194l-250 369l-243 -369h-188z" />
    <glyph glyph-name="y" unicode="y" horiz-adv-x="891" 
d="M197 1102l255 -756l250 756h178l-383 -1057q-30 -89 -58.5 -142.5t-60.5 -85.5q-57 -58 -135 -58l-66 6q-33 0 -41 2q-19 9 -31 11v153l18 -7q20 -7 40.5 -10.5t33.5 -3.5q61 0 91.5 41t75.5 182l-350 969h183z" />
    <glyph glyph-name="z" unicode="z" horiz-adv-x="891" 
d="M66 282l534 672h-491v148h705v-131l-536 -671h550v-148h-762v130z" />
    <glyph glyph-name="braceleft" unicode="{" 
d="M240 698q172 5 223 71t51 133v468q0 74 77 141.5t185 67.5h108v-50h-90q-61 0 -107 -33.5t-47 -91.5v-500q0 -83 -60.5 -158.5t-142.5 -76.5v-2q82 -1 143 -76t61 -158l-1 -500q1 -58 47 -91.5t107 -33.5h90v-50h-108q-108 0 -184.5 67.5t-77.5 141.5v468q0 66 -51 132
t-223 71v60z" />
    <glyph glyph-name="bar" unicode="|" 
d="M427 1577h160v-1995h-160v1995z" />
    <glyph glyph-name="braceright" unicode="}" 
d="M774 638q-172 -5 -223 -71t-51 -132v-468q-1 -74 -77.5 -141.5t-184.5 -67.5h-108v50h90q61 0 107 33.5t47 91.5l-1 500q0 83 61 158t144 76v2q-83 1 -143.5 76.5t-60.5 158.5v500q-1 58 -47 91.5t-107 33.5h-90v50h108q108 0 185 -67.5t77 -141.5v-468q0 -67 51 -133
t223 -71v-60z" />
    <glyph glyph-name="asciitilde" unicode="~" 
d="M923 878v-156q-63 -72 -122 -97.5t-116 -25.5q-60 0 -177.5 48.5t-176.5 48.5q-51 0 -107.5 -28t-129.5 -112v156q64 73 123 99t114 26q64 0 181.5 -49.5t172.5 -49.5q52 0 108.5 28t129.5 112z" />
    <glyph glyph-name="sterling" unicode="&#xa3;" 
d="M748 1347q-72 31 -160 31h-2q-100 0 -190 -101q-84 -93 -84 -241q0 -15 1 -30q0 -135 53 -273h360v-60h-334q14 -30 31 -60q35 -63 35 -138q0 -161 -162 -375h402q130 0 189 132l49 -1l-103 -231h-719l1 50q187 238 187 418q0 77 -34 143q-17 32 -31 62h-161v60h135
q-58 143 -58 253q0 226 123.5 347t306.5 121h4q75 0 185.5 -14t110.5 -34v-161h-58q-5 61 -77 102z" />
    <glyph glyph-name="currency" unicode="&#xa4;" 
d="M350 560q41 -40 99 -57q29 -8 58 -8t58 8q58 17 99 57q40 41 57 99q9 29 9 58t-9 58q-17 58 -57 99q-41 40 -100 57q-29 8 -58 8t-58 -9q-58 -17 -98 -56q-39 -40 -56 -98q-10 -30 -10 -60q0 -28 9 -56q16 -59 57 -100zM240 903l-118 118l80 81l118 -118q44 30 99 46
q44 14 89 14q41 0 83 -12q57 -17 102 -48l118 118l80 -81l-117 -117q31 -46 48 -102q12 -42 12 -85q0 -42 -12 -85q-17 -56 -48 -102l117 -117l-80 -81l-118 118q-45 -32 -101 -48q-42 -12 -85 -12q-42 0 -85 12q-57 16 -102 48l-118 -118l-80 81l118 117q-32 46 -48 103
q-12 42 -12 84q0 44 13 87q16 55 47 99z" />
    <glyph glyph-name="yen" unicode="&#xa5;" horiz-adv-x="1262" 
d="M547 225l-2 242q0 19 -1.5 35t-4.5 32l-484 1q-14 0 -21 6.5t-7 19.5t6.5 19t21.5 6h467l-121 172h-344q-17 0 -23.5 5.5t-6.5 18.5q0 14 6 19.5t22 5.5h307q-43 57 -108 155q-131 197 -227 197q-7 0 -13 5.5t-6 11.5q0 19 10.5 27.5t32.5 8.5q27 0 123 -8t164 -8h88
q33 0 41 -6.5t8 -26.5q0 -8 -15 -14t-38 -6q-6 0 -18.5 2t-18.5 2q-24 0 -37.5 -9.5t-13.5 -25.5q0 -18 16.5 -52t46.5 -77l158 -221q13 -19 33 -53q41 -70 71 -70q9 0 16.5 5t14.5 15l277 396q8 12 13 26.5t5 24.5q0 18 -10 27t-37 14q-15 2 -41 4q-47 3 -47 25
q0 15 8 22.5t25 7.5q3 0 15 -1q56 -7 108 -7h139q30 0 65 1t37 1q11 0 18.5 -4.5t8.5 -11.5q0 -28 -38 -34q-18 -3 -27 -5q-63 -15 -147 -117q-7 -9 -12 -15l-169 -206h323q15 0 24 -6t9 -17q0 -15 -6 -20.5t-23 -5.5h-366q-46 -57 -96.5 -112.5t-52.5 -59.5h511
q18 0 25.5 -5.5t7.5 -17.5q0 -14 -7 -21t-22 -7h-530q0 -11 -1 -30.5t-1 -29.5l2 -215q0 -114 5.5 -150t20.5 -44q30 -17 107.5 -19t77.5 -31q0 -12 -10 -20t-25 -8q-2 0 -35.5 4t-64.5 4q-91 0 -208.5 -4t-142.5 -4q-31 0 -40 4t-9 16t8 18.5t37 12.5q9 2 25 5q74 16 92 32
q17 13 24 47t7 102z" />
    <glyph glyph-name="brokenbar" unicode="&#xa6;" 
d="M427 371h160v-789h-160v789zM427 1578h160v-789h-160v789z" />
    <glyph glyph-name="section" unicode="&#xa7;" 
d="M545 321q56 16 97 53q73 65 73 166q0 5 -1 10h-2q-1 14 -4 27q-22 61 -113 127q-59 29 -126 29q-78 0 -125 -44.5t-47 -117.5q0 -123 248 -250zM466 -346q113 6 185 69q72 64 72 165q0 125 -316 276q-123 64 -175.5 137t-52.5 177q0 148 89 237q67 65 170 82l-40 19
q-123 64 -175.5 137t-52.5 177q0 148 89 237q82 79 216 86q8 1 17 1h3q66 0 163 -16.5t97 -41.5v-194h-51q-5 81 -80 132q-70 47 -149 51h-15q-78 0 -125 -44.5t-47 -117.5q0 -132 287 -269q149 -67 204.5 -143.5t55.5 -187.5q0 -171 -101 -282q-47 -39 -99 -64
q108 -56 154 -118q55 -77 55 -187q0 -171 -101 -283q-124 -102 -277 -105v1q-6 -1 -13 -1h-3q-66 0 -163 16.5t-97 41.5v194h51q5 -81 80 -132q68 -45 145 -50z" />
    <glyph glyph-name="dieresis" unicode="&#xa8;" horiz-adv-x="1024" 
d="M223 1289l71 72q13 12 25 12q11 0 27 -14l69 -73q10 -14 10 -25q0 -13 -12 -27l-69 -75q-17 -17 -25 -17q-14 0 -25 12l-76 86q-9 12 -9 23q0 13 14 26zM588 1289l71 72q13 12 25 12q11 0 27 -13l69 -74q10 -14 10 -25q0 -13 -12 -26l-69 -76q-17 -17 -25 -17
q-14 0 -25 12l-76 87q-9 11 -9 22q0 13 14 26z" />
    <glyph glyph-name="copyright" unicode="&#xa9;" horiz-adv-x="1484" 
d="M916 939q-11 67 -57 103t-121 36q-92 0 -144 -78.5t-52 -217.5q0 -136 54 -212t150 -76q72 0 119.5 40.5t59.5 112.5h126q-8 -113 -93.5 -183.5t-216.5 -70.5q-158 0 -248 104.5t-90 290.5q0 174 94.5 280.5t248.5 106.5q124 0 206 -65.5t92 -170.5h-128zM1299 782
q0 114 -41.5 215t-118.5 180q-81 80 -182 121.5t-214 41.5q-112 0 -211.5 -41t-178.5 -119q-81 -81 -124.5 -184t-43.5 -214q0 -109 43 -210t123 -182q80 -79 180.5 -121t211.5 -42q109 0 210.5 42.5t185.5 123.5q78 76 119 176t41 213zM741 1424q132 0 248.5 -47.5
t207.5 -139.5q91 -90 139 -208t48 -247t-47.5 -244.5t-137.5 -203.5q-96 -94 -214 -143.5t-244 -49.5t-242 49t-208 142q-93 91 -141 207t-48 243q0 128 48.5 245t141.5 211q91 91 205.5 138.5t243.5 47.5z" />
    <glyph glyph-name="guillemotleft" unicode="&#xab;" horiz-adv-x="880" 
d="M763 22h-72q-82 97 -164 192.5t-164 192.5q84 97 164.5 189.5t164.5 189.5h64l-217 -378zM461 22h-68q-82 97 -163 192.5t-164 192.5q84 97 164.5 189.5t165.5 189.5h65l-219 -378z" />
    <glyph glyph-name="logicalnot" unicode="&#xac;" 
d="M87 767h840v-491l-1 -1h-98v392h-741v100z" />
    <glyph glyph-name="registered" unicode="&#xae;" horiz-adv-x="1484" 
d="M734 1070h-112v-241h116q98 0 140.5 27t42.5 88q0 66 -44 96t-143 30zM759 1158q151 0 227 -50t76 -149q0 -77 -43.5 -128.5t-122.5 -67.5l163 -331h-154l-148 310h-135v-310h-137v726h274zM1299 777q0 117 -40.5 218.5t-117.5 179.5q-80 81 -181.5 123t-216.5 42
q-113 0 -213 -41t-175 -117q-82 -83 -126 -186.5t-44 -213.5q0 -108 42.5 -208.5t121.5 -180.5q78 -80 179.5 -123t209.5 -43q113 0 214.5 41.5t184.5 121.5q78 77 120 176.5t42 210.5zM741 1424q132 0 249.5 -49t208.5 -142q89 -90 137 -206.5t48 -244.5q0 -131 -48 -246
t-139 -204q-95 -92 -212.5 -141.5t-243.5 -49.5q-128 0 -244 49.5t-208 143.5q-92 92 -139.5 207t-47.5 241q0 128 50 246.5t144 213.5q88 89 201.5 135.5t243.5 46.5z" />
    <glyph glyph-name="degree" unicode="&#xb0;" horiz-adv-x="674" 
d="M339 1372q-86 0 -147.5 -61t-61.5 -148t61 -147t148 -60t147 60t60 147t-60.5 148t-146.5 61zM339 1442q115 0 196 -81.5t81 -196.5q0 -114 -82 -196t-197 -82q-117 0 -197 81t-80 197t81.5 197t197.5 81z" />
    <glyph glyph-name="paragraph" unicode="&#xb6;" horiz-adv-x="1024" 
d="M929 1435v-70h-127v-1365h-82v1365h-166v-1365h-84v738q-174 8 -275.5 102.5t-101.5 245.5q0 157 107.5 253t285.5 96h443z" />
    <glyph glyph-name="guillemotright" unicode="&#xbb;" horiz-adv-x="880" 
d="M335 408q-54 94 -108 189t-109 189h65q81 -95 163.5 -189.5t165.5 -189.5q-84 -99 -165 -193t-163 -192h-74zM632 408q-54 94 -109.5 189t-109.5 189h65q83 -95 165.5 -189.5t164.5 -189.5q-83 -99 -163 -193t-164 -192h-68z" />
    <glyph glyph-name="multiply" unicode="&#xd7;" 
d="M507 618l-247 -247l-99 99l247 247l-247 248l99 98l247 -247l248 247l98 -99l-247 -247l247 -247l-99 -99z" />
    <glyph glyph-name="divide" unicode="&#xf7;" 
d="M87 647v140h839l1 -1v-139h-840zM398 408l82 84q15 14 29 14q13 0 31 -16l80 -86q12 -16 12 -29q0 -15 -14 -31l-80 -88q-20 -20 -29 -20q-16 0 -29 14l-88 101q-10 13 -10 26q0 15 16 31zM398 1101l82 84q15 14 29 14q13 0 31 -16l80 -86q12 -16 12 -29q0 -15 -14 -31
l-80 -88q-20 -20 -29 -20q-16 0 -29 14l-88 101q-10 13 -10 26q0 15 16 31z" />
    <glyph glyph-name="dotlessi" unicode="&#x131;" horiz-adv-x="1200" 
d="M510 100l55 357l-278 -228l-90 156l333 131l-333 127l90 156l278 -224l-53 353l178 2l-55 -355l278 226l88 -158l-331 -127l334 -131l-91 -156l-278 228l55 -357h-180z" />
    <glyph glyph-name="circumflex" unicode="&#x2c6;" horiz-adv-x="1024" 
d="M221 1079l232 355h118l232 -355h-58l-233 216l-233 -216h-58z" />
    <glyph glyph-name="caron" unicode="&#x2c7;" horiz-adv-x="1024" 
d="M221 1434h58l233 -214l233 214h58l-232 -356h-118z" />
    <glyph glyph-name="uni02C9" unicode="&#x2c9;" horiz-adv-x="1024" 
d="M254 1195v125h516v-125h-516z" />
    <glyph glyph-name="breve" unicode="&#x2d8;" horiz-adv-x="1024" 
d="M219 1349h51q17 -73 75 -107t167 -34t166 33.5t74 107.5h51q-20 -133 -94 -201.5t-197 -68.5q-122 0 -197 69t-96 201z" />
    <glyph glyph-name="dotaccent" unicode="&#x2d9;" horiz-adv-x="815" 
d="M374 1445h68l17 -213l163 139l49 -49l-140 -162l214 -18v-68l-214 -17l140 -163l-49 -48l-163 139l-17 -214h-68l-17 214l-164 -139l-47 48l139 163l-214 17v68l214 18l-139 162l47 49l164 -139z" />
    <glyph glyph-name="ring" unicode="&#x2da;" horiz-adv-x="1024" 
d="M411 1257q0 -42 29 -71t71 -29t71 29t29 71q0 40 -29.5 69.5t-70.5 29.5t-70.5 -29.5t-29.5 -69.5zM335 1257q0 75 51 126t125 51q76 0 127.5 -51.5t51.5 -125.5q0 -75 -51.5 -126.5t-127.5 -51.5q-74 0 -125 51.5t-51 126.5z" />
    <glyph glyph-name="ogonek" unicode="&#x2db;" horiz-adv-x="1024" 
d="M640 0q-71 -62 -110.5 -119.5t-39.5 -112.5q0 -47 27 -75t73 -28q40 0 69.5 15.5t49.5 48.5l28 -16q-36 -63 -90.5 -97t-119.5 -34q-70 0 -114 35.5t-44 90.5q0 76 60.5 156.5t161.5 135.5h49z" />
    <glyph glyph-name="tilde" unicode="&#x2dc;" horiz-adv-x="1024" 
d="M808 1382q-20 -103 -68.5 -154t-126.5 -51h-4q-50 0 -113 23q-66 24 -114 24q-39 0 -60.5 -20.5t-33.5 -71.5h-54q19 106 68 158.5t129 52.5q46 -1 113 -24q64 -23 112 -23h4q36 0 58 20t36 66h54z" />
    <glyph glyph-name="hungarumlaut" unicode="&#x2dd;" horiz-adv-x="1024" 
d="M217 1079l144 273q24 44 45.5 63t46.5 19q28 0 48 -20t20 -47q0 -16 -10.5 -35t-30.5 -41l-205 -212h-58zM502 1079l144 273q24 44 45.5 63t46.5 19q28 0 48 -20t20 -47q0 -16 -10.5 -35t-30.5 -41l-205 -212h-58z" />
    <glyph glyph-name="afii57388" unicode="&#x60c;" horiz-adv-x="573" 
d="M315 539v-1l35 -27q-77 -91 -77 -150q0 -11 2 -20q18 6 37 6q22 0 42 -8.5t35 -23.5t23.5 -35t8.5 -43t-8.5 -42.5t-23.5 -34t-35 -23t-42 -8.5t-41.5 8.5t-34.5 23t-24 34.5q-17 29 -17 81q0 30 6 69q15 104 114 194z" />
    <glyph glyph-name="afii57403" unicode="&#x61b;" horiz-adv-x="618" 
d="M205 249q0 23 9 43t24 35t34.5 23.5t41.5 8.5t42 -8.5t35 -23.5t23.5 -35t8.5 -43t-8.5 -42.5t-23.5 -34t-35 -23t-42 -8.5t-41.5 8.5t-34.5 23t-24 34t-9 42.5zM315 919v-1l35 -27q-77 -91 -77 -150q0 -11 2 -20q18 6 37 6q22 0 42 -8.5t35 -23.5t23.5 -35t8.5 -43
t-8.5 -42.5t-23.5 -34t-35 -23t-42 -8.5t-41.5 8.5t-34.5 23t-24 34.5q-17 29 -17 81q0 30 6 69q15 104 114 194z" />
    <glyph glyph-name="afii57407" unicode="&#x61f;" horiz-adv-x="829" 
d="M427 249q0 23 9 43t24 35t34.5 23.5t41.5 8.5t42 -8.5t35 -23.5t23.5 -35t8.5 -43t-8.5 -42.5t-23.5 -34t-35 -23t-42 -8.5t-41.5 8.5t-34.5 23t-24 34t-9 42.5zM646 817l-82 -369l-98 55l2 149l-36 10q-252 73 -292 279q-7 38 -7 74q0 159 144 277q99 80 229 80
q102 0 223 -50l-62 -143q-86 28 -149 28q-136 0 -167 -130q-3 -21 -3 -40q0 -188 298 -220z" />
    <glyph glyph-name="afii57440" unicode="&#x640;" horiz-adv-x="460" 
d="M490 130h-520v151h520v-151z" />
    <glyph glyph-name="afii57451" unicode="&#x64b;" horiz-adv-x="408" 
d="M389 1675l-340 -193l17 91l340 193zM403 1842l-340 -193l17 91l340 193z" />
    <glyph glyph-name="afii57452" unicode="&#x64c;" horiz-adv-x="469" 
d="M409 1632q-6 -14 -19.5 -33.5t-32 -40t-40.5 -39.5t-45.5 -31t-47.5 -15q-5 -1 -10 -1q-19 0 -36 9q-22 11 -24 32q-1 5 -1 11q0 15 4 31q5 21 11 42q2 8 2 15q0 10 -4 17q-7 10 -31 10h-4q-27 -1 -86 -20q19 27 44.5 43.5t50.5 22.5q11 2 22 2q13 0 25 -3q22 -7 34 -25
q11 -16 11 -42v-6q-2 -30 -24 -72q46 20 85.5 44t71.5 62q-41 10 -60.5 31.5t-21.5 47.5q-1 5 -1 10q0 21 9 43q10 27 29.5 49.5t44.5 36.5q22 12 45 12h4q21 -2 28 -24q7 -21 7 -48v-3q-1 -29 -6.5 -56t-8.5 -37l38 -12l-17 -76zM388 1793q-10 10 -23 10h-3q-12 0 -19 -8
q-9 -10 -9 -22q-1 -3 -1 -6q0 -7 4 -13q5 -8 14 -14t20.5 -11.5t24.5 -11.5q2 19 2 35q0 14 -2.5 26.5t-7.5 16.5v-2z" />
    <glyph glyph-name="afii57453" unicode="&#x64d;" horiz-adv-x="408" 
d="M405 -148l-340 -193l17 91l340 193zM378 -316l-340 -193l17 91l340 193z" />
    <glyph glyph-name="afii57454" unicode="&#x64e;" horiz-adv-x="408" 
d="M389 1675l-340 -193l17 91l340 193z" />
    <glyph glyph-name="afii57455" unicode="&#x64f;" horiz-adv-x="414" 
d="M366 1664q-11 -23 -37.5 -52.5t-62.5 -55t-78 -42.5q-39 -15 -77 -15h-9q-29 2 -47.5 3t-28.5 2t-12 2h-2q0 1 1 1q61 25 105.5 43t79 36t62.5 39.5t56 54.5q-47 11 -69 34t-25 51q-1 6 -1 12q0 22 10 46q12 29 33.5 53t49.5 39q26 13 52 13h4q16 -1 25 -12.5t13 -28.5
q2 -14 2 -30v-9q-1 -22 -3.5 -42t-6.5 -36.5t-7 -24.5l44 -13l-19 -80zM341 1841q-5 6 -12 8t-12 2h-5q-14 0 -22 -8q-10 -11 -11 -25v-4q0 -22 20 -33q22 -12 51 -23q2 20 2 38q0 15 -2 28.5t-9 18.5v-2z" />
    <glyph glyph-name="afii57456" unicode="&#x650;" horiz-adv-x="408" 
d="M395 -148l-340 -193l17 91l340 193z" />
    <glyph glyph-name="afii57457" unicode="&#x651;" horiz-adv-x="425" 
d="M398 1823q11 -17 17.5 -36t11.5 -38q4 -22 4 -44q0 -12 -1 -23q-3 -34 -15 -62t-33 -45.5t-51 -17.5q-25 0 -37.5 9t-27.5 23q-6 -10 -15 -23t-22 -25t-31 -21t-40 -11q-7 -1 -13 -1q-26 0 -43 11q-21 13 -31 35t-11 50q-1 8 -1 16q0 19 3 37q3 26 10 47.5t14 31.5
q0 -1 1 -1t4 2q5 4 11.5 9t11.5 9q3 1 4 1t1 -1q-8 -20 -13 -46q-4 -19 -4 -36q0 -7 1 -14q2 -24 14 -40q10 -15 34 -15h3q29 0 44.5 16t23.5 37.5t12.5 44.5t12.5 38q1 -1 2 -1t3 1q4 3 9 7.5t10 8.5q2 1 3 1q2 0 2 -1q-5 -17 -5 -33q0 -11 3 -21q5 -25 19 -40t36 -18h6
q19 0 40 14q6 8 6 20v2q-1 13 -5 26.5t-11 27t-14 23.5q13 18 24.5 34t22.5 32z" />
    <glyph glyph-name="afii57458" unicode="&#x652;" horiz-adv-x="328" 
d="M347 1696q1 -8 1 -17q0 -26 -11 -54q-15 -38 -41 -88v1q0 1 1 2l-3 -5q-24 -14 -61.5 -26.5t-73.5 -14.5q-6 -1 -12 -1q-29 0 -53 12q-29 13 -35 51q-2 12 -2 26q0 23 6 50q8 42 26.5 81t46 67t59.5 33q8 1 15 1q20 0 39 -7q26 -11 46.5 -29t34.5 -40.5t17 -41.5z
M283 1628q-3 14 -13.5 30t-25 29.5t-31.5 22.5q-13 6 -26 6q-4 0 -9 -1q-30 -5 -44 -27q-12 -18 -12 -37q0 -4 1 -8q3 -22 21 -32.5t42 -10.5q2 -1 3 -1q23 0 47 7q26 7 46 21zM296 1537q0 -1 -1 -1zM295 1536q0 -1 -1 -1q1 0 1 1z" />
    <glyph glyph-name="afii57392" unicode="&#x660;" horiz-adv-x="1149" 
d="M411 869q0 16 12 27.5t28 11.5h248q17 0 28 -11.5t11 -27.5v-247q0 -16 -11 -27.5t-28 -11.5h-248q-16 0 -28 11.5t-12 27.5v247z" />
    <glyph glyph-name="afii57393" unicode="&#x661;" horiz-adv-x="652" 
d="M213 1301q0 16 12 27.5t28 11.5h138q17 0 28 -11.5t11 -27.5v-1119q0 -16 -11 -27.5t-28 -11.5h-138q-16 0 -28 11.5t-12 27.5v1119z" />
    <glyph glyph-name="afii57394" unicode="&#x662;" horiz-adv-x="1149" 
d="M859 1126l-223 1q-51 -6 -91 -18t-65.5 -35t-34.5 -59q-4 -17 -4 -38q0 -24 5 -52l173 -753q0 -15 -10 -24t-25 -9h-158q-11 0 -18 9.5t-8 23.5l-169 659q-10 60 -10 112q0 28 3 53q8 73 33 129.5t65.5 96.5t90.5 65.5t107.5 38.5t116.5 14q6 0 24 0.5t42 1t50.5 1.5
t49.5 1.5t40 1t22 0.5q11 0 24 -2t23.5 -7t17.5 -13t7 -20v-137q0 -17 -12 -29t-28 -12h-38z" />
    <glyph glyph-name="afii57395" unicode="&#x663;" horiz-adv-x="1149" 
d="M691 990h139v310q0 17 11 28.5t27 11.5h139q16 0 27.5 -11.5t11.5 -28.5v-271q0 -136 -59 -195.5t-169 -59.5h-482v-592q0 -16 -11 -27.5t-28 -11.5h-138q-16 0 -28 11.5t-12 27.5v1119q0 16 12 27.5t28 11.5h138q17 0 28 -11.5t11 -27.5v-311h139v310q0 17 11 28.5
t27 11.5h139q16 0 27.5 -11.5t11.5 -28.5l-1 -304h1v-6z" />
    <glyph glyph-name="afii57396" unicode="&#x664;" horiz-adv-x="1149" 
d="M483 1129q-33 -20 -38 -46q-1 -7 -1 -14q0 -21 11 -45q15 -33 45.5 -70t67.5 -78h224q17 0 28.5 -11t11.5 -28v-138q0 -16 -11.5 -27.5t-28.5 -11.5l-240 -1q-39 -10 -69 -32t-49 -50.5t-26 -60.5q-4 -17 -4 -32q0 -16 4 -31q7 -30 29.5 -56t62.5 -41h388
q17 0 28.5 -11.5t11.5 -26.5v-138q0 -17 -11.5 -28.5t-28.5 -11.5h-394q-68 0 -127 30.5t-101.5 82t-63.5 119.5q-15 48 -15 98q0 21 3 42q8 73 51 147t129 139q-25 32 -48.5 60.5t-42.5 58t-33.5 62.5t-21.5 74q0 67 21.5 121.5t58.5 92t86 58t104 20.5h394
q17 0 28.5 -11.5t11.5 -28.5v-138q0 -15 -11.5 -26.5t-28.5 -11.5h-405z" />
    <glyph glyph-name="afii57397" unicode="&#x665;" horiz-adv-x="1149" 
d="M404 141q-86 2 -145 35.5t-94 89.5t-49 129q-11 55 -11 116q0 19 2 40q4 82 24.5 168.5t53.5 168.5t77 154.5t94.5 127.5t106.5 88t114 34q58 -1 114 -34t106.5 -88t94.5 -127.5t77 -154.5t53.5 -168.5t25.5 -168.5q1 -21 1 -40q0 -61 -11 -116q-14 -73 -49 -129
t-94 -89.5t-145 -35.5h-346zM575 1058q-28 0 -59 -29q-33 -30 -65 -79t-60 -112t-46 -129t-24 -129q-2 -22 -2 -42q0 -38 8 -70q11 -50 43.5 -80.5t91.5 -30.5h230q59 0 91.5 30.5t44.5 80.5q7 32 7 70q0 20 -2 42q-6 63 -24 129t-46 129t-60 112t-65 79q-32 29 -59 29h-4z
" />
    <glyph glyph-name="afii57398" unicode="&#x666;" horiz-adv-x="1149" 
d="M206 1126q-16 0 -28 12t-12 29v137q0 12 7 20t17.5 13t23.5 7t24 2q5 0 22.5 -0.5t41.5 -1t51.5 -1.5t52 -1.5t43.5 -1t25 -0.5q93 -16 168 -57t128 -105.5t81.5 -151.5t28.5 -195l4 -659q-1 -14 -8 -23.5t-18 -9.5h-158q-15 0 -25 9t-10 24v753q-15 59 -44 96.5t-66 59
t-79 30.5t-84 12q-31 2 -61 2h-44q-24 0 -43 1h-38z" />
    <glyph glyph-name="afii57399" unicode="&#x667;" horiz-adv-x="1149" 
d="M524 494q27 -126 56 -126h1q28 1 54 129l180 804q1 16 12.5 27.5t28.5 11.5h139q16 0 27 -11q10 -11 10 -25v-3l-198 -896q-14 -57 -35.5 -101.5t-52.5 -76.5t-72 -51t-95 -26q-101 6 -163.5 69.5t-91.5 185.5q-50 226 -99 448t-99 448v3q0 14 10 25q11 11 27 11h139
q17 0 28.5 -11.5t12.5 -27.5z" />
    <glyph glyph-name="afii57400" unicode="&#x668;" horiz-adv-x="1149" 
d="M343 189q-1 -16 -12.5 -27.5t-28.5 -11.5h-139q-16 0 -27 12q-10 10 -10 24v3q50 226 99 448t99 448q29 122 91.5 185.5t163.5 69.5q54 -7 95 -26t72 -51t52.5 -76.5t35.5 -101.5l198 -896v-3q0 -14 -10 -24q-11 -12 -27 -12h-139q-17 0 -28.5 11.5t-12.5 27.5l-180 804
q-26 127 -54 129h-1q-29 0 -56 -126z" />
    <glyph glyph-name="afii57401" unicode="&#x669;" horiz-adv-x="1149" 
d="M916 542h-2v-360q0 -16 -11 -27.5t-28 -11.5h-138q-16 0 -28 11.5t-12 27.5v292h-255q-111 0 -169.5 59.5t-58.5 195.5v357q0 135 58.5 194.5t169.5 59.5h247q111 0 169.5 -59.5t58.5 -194.5q0 -74 -0.5 -147.5t-0.5 -146.5v-250zM430 690h267v300q0 8 3 14v120h-270
v-434z" />
    <glyph glyph-name="afii57381" unicode="&#x66a;" horiz-adv-x="1066" 
d="M399 31l-122 107l314 1318l138 -90zM91 1031q0 23 9 43t24 35t34.5 23.5t41.5 8.5t42 -8.5t35 -23.5t23.5 -35t8.5 -43t-8.5 -42.5t-23.5 -34t-35 -23t-42 -8.5t-41.5 8.5t-34.5 23t-24 34t-9 42.5zM697 498q0 23 9 43t24 35t34.5 23.5t41.5 8.5t42 -8.5t35 -23.5
t23.5 -35t8.5 -43t-8.5 -42.5t-23.5 -34t-35 -23t-42 -8.5t-41.5 8.5t-34.5 23t-24 34t-9 42.5z" />
    <glyph glyph-name="endash" unicode="&#x2013;" horiz-adv-x="1108" 
d="M56 419v120h996v-120h-996z" />
    <glyph glyph-name="emdash" unicode="&#x2014;" horiz-adv-x="2048" 
d="M0 419v120h2048v-120h-2048z" />
    <glyph glyph-name="quoteleft" unicode="&#x2018;" horiz-adv-x="557" 
d="M319 1016q-44 0 -88.5 65.5t-44.5 151.5q0 109 71 226.5t139 117.5v-43q-73 -43 -87 -190q0 -119 129 -161v-42z" />
    <glyph glyph-name="quoteright" unicode="&#x2019;" horiz-adv-x="557" 
d="M238 1577q44 0 88.5 -65.5t44.5 -151.5q0 -109 -71 -226.5t-139 -117.5v43q73 43 87 190q0 119 -129 161v42z" />
    <glyph glyph-name="quotesinglbase" unicode="&#x201a;" horiz-adv-x="557" 
d="M238 281q44 0 88.5 -65.5t44.5 -151.5q0 -109 -71 -226.5t-139 -117.5v43q73 43 87 190q0 119 -129 161v42z" />
    <glyph glyph-name="quotedblleft" unicode="&#x201c;" horiz-adv-x="910" 
d="M319 1016q-44 0 -88.5 65.5t-44.5 151.5q0 109 71 226.5t139 117.5v-43q-73 -43 -87 -190q0 -119 129 -161v-42zM672 1016q-44 0 -88.5 65.5t-44.5 151.5q0 109 71 226.5t139 117.5v-43q-73 -43 -87 -190q0 -119 129 -161v-42z" />
    <glyph glyph-name="quotedblright" unicode="&#x201d;" horiz-adv-x="910" 
d="M238 1577q44 0 88.5 -65.5t44.5 -151.5q0 -109 -71 -226.5t-139 -117.5v43q73 43 87 190q0 119 -129 161v42zM591 1577q44 0 88.5 -65.5t44.5 -151.5q0 -109 -71 -226.5t-139 -117.5v43q73 43 87 190q0 119 -129 161v42z" />
    <glyph glyph-name="quotedblbase" unicode="&#x201e;" horiz-adv-x="910" 
d="M238 281q44 0 88.5 -65.5t44.5 -151.5q0 -109 -71 -226.5t-139 -117.5v43q73 43 87 190q0 119 -129 161v42zM591 281q44 0 88.5 -65.5t44.5 -151.5q0 -109 -71 -226.5t-139 -117.5v43q73 43 87 190q0 119 -129 161v42z" />
    <glyph glyph-name="logo" unicode="&#x2020;" horiz-adv-x="2797" 
d="M90 647h2611v-504h-2611v504zM1364 806q-21 -12 -45 -26t-49.5 -25.5t-50.5 -19.5t-49 -8q-31 0 -55.5 20.5t-43.5 65.5q-17 -12 -30 -20.5t-25.5 -15.5t-25.5 -12t-30 -11q-18 -6 -32 -6q-17 0 -33 11.5t-16 33.5q0 7 2.5 15t6.5 17q18 40 49 76.5t68.5 64t77.5 44
t76 16.5q27 0 48 -16t21 -52q0 -14 -9.5 -30.5t-27.5 -36.5q-20 -20 -35 -44.5t-15 -46.5q0 -15 9 -21.5t23 -6.5q21 0 49.5 10t56.5 23t51.5 25.5t33.5 18.5q8 37 32.5 68.5t55.5 54.5t63.5 36.5t57.5 13.5q14 0 20 -5t6 -13q0 -10 -11 -20.5t-30 -12.5q-19 -7 -44 -19
t-47.5 -30t-38 -41t-15.5 -52q0 -32 16.5 -45t42.5 -13t59 10t64.5 23.5t58 27.5t41.5 21q0 36 19 71t48.5 62.5t66.5 44t73 16.5q22 0 36.5 -4.5t22 -11t10.5 -15t3 -15.5q0 -26 -29 -52t-67 -49t-74.5 -40.5t-52.5 -25.5q16 -23 41 -33.5t57 -10.5q30 0 64.5 8.5t70 23.5
t70 35.5t64.5 43.5q19 14 38 32t40 33q4 3 13 8t19.5 10.5t21.5 9t20 3.5q15 0 15 -13q0 -5 -4 -16.5t-10 -22.5q-16 -45 -25.5 -75t-11.5 -47q0 -5 6 -5q7 0 20 6.5t29.5 16t34 22t32.5 24.5q4 2 23 15t43 27.5t48 26.5t38 12q12 0 12 -12q-3 -29 -3 -57q0 -12 1 -24.5
t4.5 -22t10 -15.5t17.5 -6q17 0 31 5.5t27 13.5t25.5 18t27.5 19l8 -21q-12 -9 -30 -25t-38.5 -31.5t-42.5 -27t-42 -11.5q-15 0 -25 6t-15 15t-7 19t-2 19t1 18.5t1 17.5q0 11 -3.5 21t-14.5 10q-10 0 -27.5 -9.5t-38.5 -24t-45 -31t-48 -31t-46 -24.5t-40 -10q-11 2 -22 8
t-11 19q0 23 4.5 44.5t18.5 62.5q-1 0 -15 -10q-16 -11 -43.5 -28t-64 -37t-77 -37.5t-83 -29t-82.5 -11.5q-41 0 -76.5 16.5t-49.5 46.5q-19 -8 -47.5 -22t-62 -27.5t-68.5 -23t-66 -9.5q-35 0 -61.5 16.5t-35.5 60.5zM524 1215q8 37 25.5 64t46.5 27q10 0 19.5 -3.5
t9.5 -17.5q0 -9 -8 -24.5t-17 -28.5l-97 -192q105 5 209 36t189 97q35 31 61.5 43.5t43.5 12.5q25 0 25 -21q0 -19 -23 -47.5t-73 -54.5q-33 -34 -63 -72t-54 -82t-40 -96t-20 -115q0 -19 -15 -19q-12 0 -18 13.5t-6 45.5q0 73 22.5 140.5t56.5 124.5q-76 -25 -155 -36.5
t-161 -11.5l-80 -160q-15 -31 -39 -54t-56 -23q-24 0 -50 18.5t-47 49t-35 68.5t-14 77q0 34 16.5 56.5t54.5 22.5q6 0 12 -0.5t13 -1.5q46 -5 92.5 -10t94.5 -5zM1103 185h91v320l318 -320h109v421h-91v-320l-313 320h-114v-421zM1709 185h430v76h-331v108h299v75h-299v87
h322v75h-421v-421zM2202 606v-77h183v-344h89v344h183v77h-455zM427 1000q-108 3 -214 21q-13 -10 -13 -35q0 -23 9.5 -52.5t25.5 -56t36 -45t40 -18.5q15 0 29 12t26 40zM1183 979q-5 1 -10 1h-10q-36 0 -70.5 -17t-65 -43.5t-56 -58.5t-43.5 -61q41 0 77.5 16.5t68.5 42
t59 57.5t50 63zM880 310v-125h126v125h-126zM1914 1011q-50 -5 -99 -38t-78 -99q40 17 73.5 34t58.5 33t39 30t14 25q0 10 -8 15z" />
    <glyph glyph-name="daggerdbl" unicode="&#x2021;" 
d="M503 455q26 0 42 16.5t16 38.5q0 24 -16 41t-42 17q-22 0 -38 -17t-16 -41q0 -22 16 -38.5t38 -16.5zM532 622q7 0 17 -5t19 -9q34 41 67 93t62 100q7 10 19 24.5t29 22.5q13 5 27 5h10q20 -3 41 -24q20 -20 22 -39v-8q0 -16 -6 -30q-8 -18 -21.5 -30.5t-23.5 -19.5
q-46 -29 -97 -60.5t-95 -68.5q8 -9 10.5 -17.5t6.5 -20.5q54 7 113.5 20t110.5 25q14 1 34 2h5q16 0 31 -5q17 -6 30.5 -21.5t13.5 -45.5q0 -29 -13.5 -44.5t-30.5 -21.5t-36 -6q-20 0 -34 2q-51 14 -110.5 26.5t-113.5 19.5q-4 -12 -6.5 -21.5t-10.5 -15.5q44 -38 95 -69.5
t97 -58.5q10 -10 23.5 -23t22.5 -29q6 -12 6 -27v-8q-3 -20 -23 -40q-21 -22 -41 -25q-5 -1 -10 -1q-14 0 -27 7q-17 8 -29 22t-19 26q-29 45 -62 95.5t-67 96.5q-9 -7 -19 -11.5t-17 -5.5q2 -56 15.5 -115t25.5 -113q3 -12 4 -30v-5q0 -16 -6 -31q-7 -17 -22 -30t-46 -13
q-29 0 -43.5 13t-20.5 30q-5 15 -5 30v6q1 18 3 30q12 54 24.5 113t19.5 115q-19 3 -41 17q-34 -46 -66 -96.5t-63 -95.5q-7 -12 -19.5 -26t-28.5 -22q-13 -7 -26 -7q-5 0 -10 1q-20 3 -40 25q-20 20 -23 40q-1 5 -1 10q0 13 6 25q8 16 22.5 29t24.5 23q44 27 96 58.5
t94 69.5q-10 15 -15 37q-54 -7 -114.5 -19.5t-111.5 -26.5q-12 -2 -30 -2q-19 0 -37 6t-30 21.5t-12 44.5q0 30 12 45.5t30 21.5q15 5 31 5h6q18 -1 30 -2q51 -12 111.5 -25t114.5 -20q3 12 6.5 20.5t8.5 17.5q-42 37 -94 68.5t-96 60.5q-10 7 -24.5 19.5t-22.5 30.5
q-6 13 -6 27q0 5 1 11q3 19 23 39q20 21 40 24h9q14 0 27 -5q17 -8 29 -22.5t19 -24.5q31 -48 63 -100t66 -93q12 4 21.5 9t19.5 5q-7 58 -19.5 116.5t-24.5 113.5q-2 11 -3 30v5q0 17 5 32q6 18 20.5 29.5t43.5 11.5q31 0 46 -11.5t22 -29.5q6 -16 6 -32v-5q-1 -19 -4 -30
q-12 -55 -25.5 -113.5t-15.5 -116.5z" />
    <glyph glyph-name="bullet" unicode="&#x2022;" horiz-adv-x="1024" 
d="M216 448q0 123 87 209t210 86q122 0 208.5 -86.5t86.5 -208.5t-87.5 -209.5t-209.5 -87.5q-123 0 -209 87t-86 210z" />
    <glyph glyph-name="ellipsis" unicode="&#x2026;" horiz-adv-x="2048" 
d="M145 167l82 84q15 14 29 14q13 0 31 -16l80 -86q12 -16 12 -29q0 -15 -14 -31l-80 -88q-20 -20 -29 -20q-16 0 -29 14l-88 101q-10 13 -10 26q0 15 16 31zM828 167l82 84q15 14 29 14q13 0 31 -16l80 -86q12 -16 12 -29q0 -15 -14 -31l-80 -88q-20 -20 -29 -20
q-16 0 -29 14l-88 101q-10 13 -10 26q0 15 16 31zM1511 167l82 84q15 14 29 14q13 0 31 -16l80 -86q12 -16 12 -29q0 -15 -14 -31l-80 -88q-20 -20 -29 -20q-16 0 -29 14l-88 101q-10 13 -10 26q0 15 16 31z" />
    <glyph glyph-name="guilsinglleft" unicode="&#x2039;" horiz-adv-x="631" 
d="M174 479l342 303h14v-37l-205 -266l205 -266v-37h-14z" />
    <glyph glyph-name="guilsinglright" unicode="&#x203a;" horiz-adv-x="631" 
d="M115 176h-14v37l205 266l-205 266v37h14l342 -303z" />
    <glyph glyph-name="fraction" unicode="&#x2044;" horiz-adv-x="342" 
d="M-342 -29l940 1461h84l-938 -1461h-86z" />
    <glyph glyph-name="fraction" unicode="&#x2215;" horiz-adv-x="342" 
d="M-342 -29l940 1461h84l-938 -1461h-86z" />
    <glyph glyph-name="franc" unicode="&#x20a3;" 
d="M247 357h-194v60h194v732q0 235 -103 235h-96v50h915l103 -231h-49q-59 182 -190 182l-316 -1q-102 0 -102 -235v-352h361q100 0 100 63v58h50v-342h-50v60q0 62 -100 62h-361v-281h194v-60h-194v-72q0 -235 102 -235h97v-50h-560v50h96q103 0 103 235v72z" />
    <glyph glyph-name="lira" unicode="&#x20a4;" 
d="M748 1347q-72 31 -160 31h-2q-100 0 -190 -101q-84 -93 -84 -241q0 -15 1 -30q0 -106 33 -213h380v-60h-360q12 -30 26 -60h352v-60h-321q35 -63 35 -138q0 -161 -162 -375h402q130 0 189 132l49 -1l-103 -231h-719l1 50q187 238 187 418q0 77 -34 143l-2 2h-172v60h143
q-14 31 -26 60h-135v60h113q-36 107 -36 193q0 226 123.5 347t310.5 121q75 0 185.5 -14t110.5 -34v-161h-58q-5 61 -77 102z" />
    <glyph glyph-name="peseta" unicode="&#x20a7;" horiz-adv-x="2028" 
d="M409 1384v-662q3 -9 7 -17q41 -102 108 -153q57 -44 116 -44q10 0 19 1q68 8 127 75t87 177q22 87 22 179q0 24 -1 47q-7 116 -49.5 218.5t-108.5 144.5q-56 35 -112 35q-10 0 -21 -1h-194zM1496 908h-179v-685q0 -81 34 -119q28 -31 81 -37l-71 192l49 1
q55 -130 114 -174q57 -44 127 -44h7q92 0 151 52q59 53 59 136q0 102 -259 226q-101 52 -144 112t-43 145q0 121 73 194zM1039 910q-7 -101 -48 -194q-50 -114 -141 -177.5t-190 -63.5q-100 0 -191 64q-33 22 -60 51v-305q0 -235 102 -235h97v-50h-560v50h96q103 0 103 235
v864q0 235 -103 235h-96v50h618q92 -2 181 -62q91 -62 143 -177q50 -113 51 -237h10q216 0 216 355h50v-355h259q42 19 110 20h2q54 0 133.5 -13.5t79.5 -33.5v-159h-42q-4 66 -65.5 108t-133.5 42q-64 0 -102.5 -36.5t-38.5 -96.5q0 -108 235 -220q122 -55 167.5 -117.5
t45.5 -153.5q0 -140 -83 -231q-102 -84 -228 -86q-58 0 -105 11q-28 6 -56 6q-18 0 -36 -3q-28 -5 -59 -5q-124 0 -173.5 57t-57.5 176h-1v687h-129z" />
    <glyph glyph-name="Euro" unicode="&#x20ac;" 
d="M140 372q-62 135 -76 281h-108l17 60h87v29q0 16 1 31h-71l17 60h58q14 145 76 281q81 178 226 274t298 96q43 0 87 -8q40 -10 82 -29q8 -6 16 -6q20 0 34 45h41l84 -281l-40 -1q-49 134 -138 178q-43 22 -81 32v3q-50 16 -101 16q-17 0 -34 -2q-120 -12 -226 -113.5
t-157 -273.5q-32 -104 -39 -211h706l-17 -60h-692q0 -30 2 -60h674l-17 -60h-652q17 -158 83 -298q74 -157 193 -236q102 -68 216 -69q186 3 256 91q74 91 74 185h48v-143q0 -70 -111 -127q-105 -54 -267 -56q-181 0 -325.5 98t-223.5 274z" />
    <glyph glyph-name="trademark" unicode="&#x2122;" horiz-adv-x="2048" 
d="M764 1348h-260v-721h-150v721h-260v122h670v-122zM1382 850l238 620h229v-843h-149v686h-4l-264 -686h-103l-264 686h-4v-686h-150v843h230z" />
    <glyph glyph-name="partialdiff" unicode="&#x2202;" 
d="M232 537q0 -41 5 -79q14 -122 61.5 -230t118.5 -165q64 -53 128 -53q6 0 13 1q70 5 127.5 70.5t80.5 179.5q16 73 16 149q0 42 -5 85q-14 122 -62.5 231.5t-119.5 165.5q-65 50 -128 50h-11q-68 -5 -126 -69.5t-82 -178.5q-16 -84 -16 -157zM937 477q0 -132 -56.5 -251
t-159 -185t-214.5 -66t-214.5 66t-159 185t-56.5 251q0 131 58 251t161 185t211 65q109 0 212 -65q29 -18 54 -41q-84 235 -233.5 377t-326.5 155v55q306 0 515 -285t209 -697z" />
    <glyph glyph-name="Delta" unicode="&#x2206;" horiz-adv-x="1081" 
d="M514 1195l-406 -1072h801zM547 1434l526 -1434h-1067z" />
    <glyph glyph-name="product" unicode="&#x220f;" horiz-adv-x="1515" 
d="M511 1384q-102 0 -102 -235v-1281q0 -235 102 -235h97v-51h-560v51h96q103 0 103 235v1281q0 235 -103 235h-96v50h1419v-50h-97q-102 0 -102 -235v-1281q0 -235 102 -235h97v-50h-560v50h96q103 0 103 235v1281q0 235 -103 235h-492z" />
    <glyph glyph-name="summation" unicode="&#x2211;" horiz-adv-x="1206" 
d="M1059 548l-788 -914h635q130 0 189 182h49l-103 -232h-921v50q62 0 106 53l663 781l-663 859q-44 57 -106 57v50h921l103 -232h-49q-59 182 -189 182h-485z" />
    <glyph glyph-name="minus" unicode="&#x2212;" 
d="M87 647v140h839l1 -1v-139h-840z" />
    <glyph glyph-name="radical" unicode="&#x221a;" 
d="M181 0l-164 359l74 35l85 -185l728 1470h150v-60h-72z" />
    <glyph glyph-name="infinity" unicode="&#x221e;" 
d="M439 755q-15 103 -74 133q-46 22 -84 22q-12 0 -23 -2q-49 -10 -92.5 -44.5t-65.5 -84.5q-20 -46 -20 -90v-8q2 -48 27.5 -89t71.5 -58q29 -11 61 -11q16 0 33 3q47 10 90.5 43.5t75.5 185.5zM466 687q12 -96 94 -153q69 -48 123 -48q11 0 21 2q62 12 117.5 52t84.5 101
q26 54 26 108v11q-2 60 -35.5 108.5t-91.5 68.5q-37 13 -76 13q-22 0 -44 -4q-67 -9 -127 -62t-92 -197zM450 827q9 35 21 69q34 88 95 137t128 49t128 -48t95 -135t34 -182t-34 -182t-95 -135t-128 -48t-128 49t-95 136q-12 35 -21 70q-5 -21 -12 -41q-27 -73 -74 -113
t-99 -40t-100 41t-73.5 113.5t-25.5 149.5q0 76 25.5 149t73.5 114t100 41t99 -40t74 -112q7 -21 12 -42z" />
    <glyph glyph-name="integral" unicode="&#x222b;" horiz-adv-x="665" 
d="M-12 -281q-60 0 -60 29v159h36q1 -43 34.5 -64.5t63.5 -21.5h1q82 0 115 162q32 162 40 316l70 734l8 62q27 238 135 429.5t234 191.5q60 0 60 -29v-159h-36q-1 43 -35 64.5t-63 21.5q-71 0 -116 -155.5t-49 -363.5l-73 -767q-20 -231 -130.5 -420t-234.5 -189z" />
    <glyph glyph-name="approxequal" unicode="&#x2248;" 
d="M923 1053v-156q-63 -72 -122 -97.5t-116 -25.5q-60 0 -177.5 48.5t-176.5 48.5q-51 0 -107.5 -28t-129.5 -112v156q64 73 123 99t114 26q64 0 181.5 -49.5t172.5 -49.5q52 0 108.5 28t129.5 112zM923 705v-156q-63 -72 -122 -97.5t-116 -25.5q-60 0 -177.5 48.5
t-176.5 48.5q-51 0 -107.5 -28t-129.5 -112v156q64 73 123 99t114 26q64 0 181.5 -49.5t172.5 -49.5q52 0 108.5 28t129.5 112z" />
    <glyph glyph-name="lessequal" unicode="&#x2264;" 
d="M927 1074l-625 -359l625 -355v-167l-840 481v83l840 484v-167zM87 1v140h839l1 -1v-139h-840z" />
    <glyph glyph-name="greaterequal" unicode="&#x2265;" 
d="M87 1241l840 -484v-83l-840 -481v167l625 355l-625 359v167zM87 2v140h839l1 -1v-139h-840z" />
    <glyph glyph-name="uniF06E" unicode="&#xf06e;" horiz-adv-x="774" 
d="M77 979h675v-675h-675v675z" />
    <glyph glyph-name="uniF0CD" unicode="&#xf0cd;" horiz-adv-x="1082" 
d="M549 98l-198 219l198 199l201 -199zM1025 581l-214 -205l-198 205l198 198zM549 1056l196 -215l-196 -198l-198 198zM74 581l212 198l198 -198l-198 -198z" />
    <glyph glyph-name="uniF0CE" unicode="&#xf0ce;" horiz-adv-x="1024" 
d="M509 1094l456 -457l-456 -456l-457 456zM128 637l381 -380l380 380l-380 381zM509 855l217 -218l-217 -217l-217 217z" />
    <glyph glyph-name="uniF0CF" unicode="&#xf0cf;" horiz-adv-x="983" 
d="M253 1047h454l227 -393l-227 -394h-454l-227 394l113 196zM298 968l-182 -314l182 -315h364l181 315l-181 314h-364zM361 859h238l118 -205l-118 -206h-238l-118 206l59 103z" />
    <glyph glyph-name="uniF0D0" unicode="&#xf0d0;" horiz-adv-x="901" 
d="M450 1043l402 -291l-153 -473h-497l-154 473l201 145zM592 430l141 103l-108 333h-350l-108 -333l283 -205zM528 727l79 -56l-60 -184h-193l-60 184l156 113z" />
    <glyph glyph-name="uniF0D3" unicode="&#xf0d3;" horiz-adv-x="1139" 
d="M653 686q90 280 211 280q37 0 60.5 -24.5t23.5 -59.5q0 -121 -280 -211zM668 503q280 -89 280 -210q0 -36 -24.5 -60t-59.5 -24q-121 0 -211 280zM485 489q-89 -280 -211 -280q-35 0 -59.5 24t-24.5 62q0 119 281 208zM471 671q-140 45 -210.5 97t-70.5 114q0 38 24.5 61
t61.5 23q120 0 209 -280zM698 604l33 14q148 62 211 62q57 0 92 -25.5t35 -67.5q0 -92 -121 -92q-62 0 -190 64q-11 5 -25.5 11.5t-34.5 14.5v19zM580 458q82 -161 82 -245q0 -125 -93 -125q-92 0 -92 125q0 84 82 245h21zM440 577q-161 -82 -245 -82q-125 0 -125 92
q0 93 125 93q84 0 245 -82v-21zM559 716q-82 163 -82 248q0 123 92 123q93 0 93 -123q0 -85 -82 -248h-21zM477 589q0 19 7.5 35.5t20 29t29.5 19.5t35 7q39 0 66 -27t27 -66q0 -18 -7 -35t-20 -29.5t-30 -20t-36 -7.5t-36 7.5t-29.5 20.5t-19.5 30t-7 36z" />
    <glyph glyph-name="uniF0D4" unicode="&#xf0d4;" horiz-adv-x="1233" 
d="M620 1212l122 -426l443 16l3 -8l-367 -247l152 -417l-7 -4l-350 272l-347 -274l-7 5l150 418l-367 247l2 7l443 -15l122 426h8z" />
    <glyph glyph-name="uniFD3E" unicode="&#xfd3e;" horiz-adv-x="1251" 
d="M641 665q21 0 41 8.5t35.5 23t25 34t9.5 40.5t-9.5 40t-25 34t-35.5 24t-41 9t-41 -8.5t-35 -23t-24 -34t-9 -41.5t9 -41.5t24 -33.5t35 -22.5t41 -8.5zM662 1019h47v-59l125 131l-5 4l-135 -23q13 60 31.5 117t44.5 113v108q-120 -144 -166 -336l-143 33l98 -154h8v66
h49l41 70h5v-70zM770 1134l111 8h7q25 0 25 -19q0 -15 -24 -43l-139 -157q-11 -9 -11 -25q0 -20 25 -20q11 0 24 10l168 125q25 18 41 18q21 0 21 -28v-123q133 -47 133 -115q0 -56 -133 -109v-122q0 -39 -19 -39q-13 0 -30 14l-172 129q-24 16 -37 16q-23 0 -23 -22
q0 -15 25 -41l141 -158q10 -10 10 -26q0 -21 -28 -21h-9q-3 0 -8 2l-100 15v-21q0 -8 6 -30.5t19 -59.5q16 -50 43.5 -105.5t63.5 -113t79 -114t90 -107.5q51 -51 51 -68q0 -20 -18 -20q-36 0 -156 108q-119 107 -203 215q-110 141 -174 316l-151 -29h-10q-25 0 -25 20
q0 13 12 31l127 176q19 28 19 39q0 25 -25 25q-14 0 -45 -27l-145 -129q-27 -22 -41 -22q-27 0 -27 53v116q-26 9 -49.5 22t-42.5 28t-30 30.5t-11 28.5q0 48 133 113v131q0 37 27 37q8 0 15.5 -4.5t18.5 -12.5l162 -141q21 -16 35 -16q25 0 25 22q0 11 -11 25l-127 180
q-16 22 -16 39q0 20 29 20h8q3 0 8 -2l146 -22q35 85 69.5 152t69.5 118q69 100 190 215q82 77 131.5 115.5t69.5 38.5t20 -21q0 -17 -92 -115q-48 -54 -90.5 -115t-79.5 -130t-61 -133.5t-35 -124.5zM469 697h-94v46q-17 2 -33.5 8.5t-30.5 17.5q27 20 64 23v43h98v4
l-162 123v-121q-27 -7 -51.5 -16t-42.5 -18.5t-28.5 -19t-10.5 -18.5t11.5 -19.5t30 -21t42.5 -19t49 -14.5v-118l158 116v4zM711 577v-60h-47v-69h-5l-41 69h-49v66h-4l-102 -154l143 33q41 -184 166 -336v102q-22 53 -41.5 112.5t-36.5 125.5l137 -25l5 5zM901 839v-45
q20 -2 35.5 -9t28.5 -18q-14 -11 -29.5 -16.5t-34.5 -5.5v-43h-92l-6 -5l162 -118v116q25 6 49 15.5t42.5 20t30 20t11.5 16.5q0 9 -12 20.5t-31 22t-42.5 19t-47.5 12.5v119l-156 -117l2 -4h90z" />
    <glyph glyph-name="uniFD3F" unicode="&#xfd3f;" horiz-adv-x="1251" 
d="M610 665q22 0 41.5 8.5t34.5 23t24 34t9 40.5q0 22 -9 41.5t-24 34t-34.5 23t-41.5 8.5t-42 -8.5t-35 -23t-24 -34t-9 -41.5q0 -21 9 -40.5t24 -34t35 -23t42 -8.5zM590 1019v70h4l41 -70h49v-66h8l99 154l-144 -33q-8 40 -24 84t-37.5 88t-48 86t-56.5 78v-108
q19 -39 38.5 -96t39.5 -136l-137 25l-4 -4l125 -131v59h47zM233 880v123q0 28 21 28q8 0 17.5 -4.5t23.5 -13.5l168 -125q13 -10 24 -10q25 0 25 20q0 15 -10 25l-140 157q-24 28 -24 45t25 17h8l102 -8q-6 96 -80 241q-37 73 -81.5 138.5t-98.5 123.5q-87 98 -90 111v2
q0 23 20 23q26 0 146 -105q154 -136 225 -237q37 -51 76.5 -125.5t83.5 -171.5l145 22q5 2 8 2h9q26 0 26 -22q0 -17 -14 -37l-127 -180q-10 -15 -10 -25q0 -22 22 -22q18 0 37 16l162 141q20 17 35 17q26 0 26 -37v-131q133 -65 133 -113q0 -13 -11.5 -29t-30.5 -31.5
t-42.5 -28.5t-48.5 -20v-116q0 -53 -26 -53q-16 0 -41 22l-146 129q-27 27 -49 27q-20 0 -20 -25q0 -14 18 -39l127 -176q12 -18 12 -33q0 -18 -24 -18h-10l-152 29q-37 -88 -74 -159.5t-76 -125.5q-38 -54 -91.5 -112.5t-123.5 -121.5q-134 -120 -167 -120q-19 0 -19 20
q0 15 88 113q111 120 182 262q38 69 57.5 130t22.5 114l-98 -15q-5 -2 -9 -2h-9q-27 0 -27 21q0 13 10 26l141 158q23 28 23 45q0 16 -20 16q-22 0 -37 -12l-172 -131q-21 -14 -31 -14q-19 0 -19 39v122q-133 53 -133 109q0 68 133 115zM782 697v-4l158 -116v118
q22 3 45.5 12t43 19.5t32 22t12.5 20.5q0 7 -11 17t-30 20t-43 19.5t-49 15.5v121l-162 -123v-4h99v-43q11 -2 27 -7t36 -16q-14 -11 -30 -17.5t-33 -8.5v-46h-95zM541 517v60l-125 -131l4 -5l137 25q-20 -74 -39 -131.5t-39 -99.5v-109q30 36 56.5 77.5t48 85.5t37.5 88
t24 85l143 -33l-102 154h-4v-66h-49l-41 -69h-4v69h-47zM350 794v45h90l2 4l-155 117v-119q-24 -4 -48 -12.5t-42.5 -19t-30.5 -22t-12 -20.5q0 -7 11 -16.5t30 -20t42.5 -20t49.5 -15.5v-116l162 118l-7 5h-92v43q-22 0 -63 22q14 11 29.5 18t33.5 9z" />
    <glyph glyph-name="uniFE82" horiz-adv-x="519" 
d="M323 1367v-969q0 -29 10 -52.5t27 -40.5q26 -24 47 -24h142v-151h-141q-67 0 -124.5 23.5t-98.5 65.5q-35 35 -55.5 81t-20.5 98v969h214zM37 1557l417 60l-21 -107l-417 -60z" />
    <glyph glyph-name="uniFE84" horiz-adv-x="524" 
d="M328 1367v-969q0 -29 10 -52.5t27 -40.5q26 -24 47 -24h142v-151h-141q-67 0 -124.5 23.5t-98.5 65.5q-35 35 -55.5 81t-20.5 98v969h214zM378 1522l-311 -26l-12 85l89 5q-18 24 -30 39t-16 29q-3 8 -3 17q0 6 1 13q3 15 15 40q14 32 44 46.5t68 19.5q19 2 38 2h25
q31 -3 58 -8l-21 -81q-21 4 -43 6q-11 1 -21 1t-20 -1q-36 -4 -41 -15q-2 -4 -2 -9q0 -8 7 -18q9 -16 27 -34t29 -36l107 10z" />
    <glyph glyph-name="uniFE88" horiz-adv-x="518" 
d="M322 1367v-969q0 -29 10 -52.5t27 -40.5q26 -24 47 -24h142v-151h-141q-67 0 -124.5 23.5t-98.5 65.5q-35 35 -55.5 81t-20.5 98v969h214zM372 -229l-311 -26l-12 85l89 5q-18 24 -30 39t-16 29q-3 8 -3 17q0 6 1 13q3 15 15 40q14 32 44 46.5t68 19.5q19 2 38 2h25
q31 -3 58 -8l-21 -81q-21 4 -43 6q-11 1 -21 1t-20 -1q-36 -4 -41 -15q-2 -4 -2 -9q0 -8 7 -18q9 -16 27 -34t29 -36l107 10z" />
    <glyph glyph-name="uniFE8B" horiz-adv-x="631" 
d="M531 977v-579q0 -52 -20.5 -98t-55.5 -81q-42 -42 -98.5 -65.5t-125.5 -23.5h-261v151h262q24 0 48 24q17 17 27 40.5t10 52.5h-1v579h215zM523 1185l-307 -20l-8 107l57 3q-22 29 -33.5 50t-15.5 38q-2 10 -2 19q0 7 1 14q3 15 10 34q10 27 30 48t48 35.5t61.5 21.5
t69.5 7q29 0 46.5 -2.5t34.5 -6.5l-18 -104q-39 14 -68 14q-11 0 -21 -2q-36 -7 -48 -37q-7 -16 -7 -33q0 -13 5 -26q9 -30 50 -57l120 11z" />
    <glyph glyph-name="uniFE8E" horiz-adv-x="510" 
d="M314 1367v-969q0 -29 10 -52.5t27 -40.5q26 -24 47 -24h142v-151h-141q-67 0 -124.5 23.5t-98.5 65.5q-35 35 -55.5 81t-20.5 98v969h214z" />
    <glyph glyph-name="uniFE91" horiz-adv-x="631" 
d="M133 -169q0 23 9 43t24 35t34.5 23.5t41.5 8.5t42 -8.5t35 -23.5t23.5 -35t8.5 -43t-8.5 -42.5t-23.5 -34t-35 -23t-42 -8.5t-41.5 8.5t-34.5 23t-24 34t-9 42.5zM531 977v-579q0 -52 -20.5 -98t-55.5 -81q-42 -42 -98.5 -65.5t-125.5 -23.5h-261v151h262q24 0 48 24
q17 17 27 40.5t10 52.5h-1v579h215z" />
    <glyph glyph-name="uniFE97" horiz-adv-x="631" 
d="M305 1326q0 23 9 43t24 35t35 23.5t43 8.5q22 0 41.5 -8.5t34 -23.5t23 -35t8.5 -43t-8.5 -42.5t-23 -34t-34 -23t-41.5 -8.5q-23 0 -43 8.5t-35 23t-24 34t-9 42.5zM44 1326q0 23 9 43t24 35t34.5 23.5t41.5 8.5t42 -8.5t35 -23.5t23.5 -35t8.5 -43t-8.5 -42.5
t-23.5 -34t-35 -23t-42 -8.5t-41.5 8.5t-34.5 23t-24 34t-9 42.5zM531 977v-579q0 -52 -20.5 -98t-55.5 -81q-42 -42 -98.5 -65.5t-125.5 -23.5h-261v151h262q24 0 48 24q17 17 27 40.5t10 52.5h-1v579h215z" />
    <glyph glyph-name="uniFE9A" horiz-adv-x="1484" 
d="M741 1200q0 23 9 43t24 35t35 23.5t43 8.5q22 0 41.5 -8.5t34 -23.5t23 -35t8.5 -43t-8.5 -42.5t-23 -34t-34 -23t-41.5 -8.5q-23 0 -43 8.5t-35 23t-24 34t-9 42.5zM577 1458q0 23 9 43t24 35t34.5 23.5t41.5 8.5t42 -8.5t35 -23.5t23.5 -35t8.5 -43t-8.5 -42.5
t-23.5 -34t-35 -23t-42 -8.5t-41.5 8.5t-34.5 23t-24 34t-9 42.5zM412 1200q0 23 9 43t24 35t34.5 23.5t41.5 8.5t42 -8.5t35 -23.5t23.5 -35t8.5 -43t-8.5 -42.5t-23.5 -34t-35 -23t-42 -8.5t-41.5 8.5t-34.5 23t-24 34t-9 42.5zM1345 972v-574q0 -10 -1 -15q2 -23 12 -43
t25 -35q24 -24 48 -24h85v-151h-84q-57 0 -105.5 16t-87.5 45q-38 -29 -86.5 -45t-105.5 -16h-644q-69 0 -126 23.5t-98 65.5q-35 35 -55.5 81t-20.5 98h-1v376h215v-376q0 -29 10 -52.5t27 -40.5q24 -24 47 -24h647q24 0 48 24q31 31 36 78v589h215z" />
    <glyph glyph-name="uniFE9F" horiz-adv-x="981" 
d="M101 1041q101 22 185 22q13 0 26 -1q94 -4 167.5 -32t130 -78.5t98.5 -119.5q36 -58 62 -128t45.5 -149t34.5 -165.5t29 -176.5v-7q0 -11 -4 -22q-7 -15 -20 -26t-31.5 -18.5t-40.5 -8.5q-4 -1 -11 -1h-802v151h682q-12 73 -25 142.5t-29.5 132.5t-37.5 117.5t-49 99.5
q-25 40 -57.5 70t-75 46.5t-95.5 19.5h-17q-47 0 -104 -12zM299 -169q0 23 9 43t24 35t34.5 23.5t41.5 8.5t42 -8.5t35 -23.5t23.5 -35t8.5 -43t-8.5 -42.5t-23.5 -34t-35 -23t-42 -8.5t-41.5 8.5t-34.5 23t-24 34t-9 42.5z" />
    <glyph glyph-name="uniFEA2" horiz-adv-x="1154" 
d="M1184 129h-59q-53 0 -91 6.5t-65 17.5t-45.5 27t-33 36t-27.5 44t-29 50q-23 4 -49.5 7.5t-55.5 6.5q-36 3 -74 4h-14q-32 0 -61 -3q-37 -5 -71 -15t-62 -29q-54 -31 -86 -81t-40 -108q-3 -20 -3 -39q0 -53 22 -103q14 -33 37 -62.5t57 -52.5q35 -24 82 -41t107 -23
q35 -4 76 -4q27 0 58 2q73 4 161 23l62 -143q-121 -26 -225 -31q-31 -1 -60 -1q-70 0 -131 8q-87 12 -157 39t-124 65t-91 82.5t-58 95.5q-21 48 -27 99q-3 22 -3 45q0 28 4 56q12 86 63 162.5t138 126.5q32 20 64.5 33.5t62 21.5t53.5 12.5t39 6.5q54 8 110 8h28
q70 -3 133 -11q-20 110 -48 204t-72 165q-25 40 -57.5 70t-75 46.5t-95.5 19.5h-17q-47 0 -104 -12l-61 144q101 22 185 22q13 0 26 -1q94 -4 167.5 -32t130 -78.5t98.5 -119.5q60 -97 94 -225t58 -274q6 -34 14 -56.5t20 -36t27.5 -19t35.5 -5.5v1h59v-151z" />
    <glyph glyph-name="uniFEA7" horiz-adv-x="981" 
d="M101 1041q101 22 185 22q13 0 26 -1q94 -4 167.5 -32t130 -78.5t98.5 -119.5q36 -58 62 -128t45.5 -149t34.5 -165.5t29 -176.5v-7q0 -11 -4 -22q-7 -15 -20 -26t-31.5 -18.5t-40.5 -8.5q-4 -1 -11 -1h-802v151h682q-12 73 -25 142.5t-29.5 132.5t-37.5 117.5t-49 99.5
q-25 40 -57.5 70t-75 46.5t-95.5 19.5h-17q-47 0 -104 -12zM234 1363q0 23 9 43t24 35t34.5 23.5t41.5 8.5t42 -8.5t35 -23.5t23.5 -35t8.5 -43t-8.5 -42.5t-23.5 -34t-35 -23t-42 -8.5t-41.5 8.5t-34.5 23t-24 34t-9 42.5z" />
    <glyph glyph-name="uniFEAE" horiz-adv-x="665" 
d="M536 977v-696h159v-151h-159q-5 -82 -23 -145t-48 -111t-70 -82t-89 -57q-49 -24 -102 -37t-109 -19t-114.5 -7t-118.5 -1v150q48 0 93.5 0.5t87 4.5t77.5 11.5t65 21.5q28 13 52 35.5t41.5 56t28.5 79t14 106.5v841h215z" />
    <glyph glyph-name="uniFEB4" horiz-adv-x="1502" 
d="M1338 383q4 -47 36 -78q24 -24 48 -24h110v-151h-109q-57 0 -105.5 16t-86.5 45q-39 -29 -87.5 -45t-105.5 -16h-92q-57 0 -105.5 16t-86.5 45q-39 -29 -87.5 -45t-105.5 -16h-97q-57 0 -105.5 16t-87.5 45q-38 -29 -86.5 -45t-105.5 -16h-109v151h110q24 0 48 24
q31 31 36 78v594h215v-579q0 -10 -1 -15q2 -23 12 -43t25 -35q24 -24 48 -24h99q24 0 48 24q15 15 25 35t12 43q-1 5 -1 15v579h215v-594q4 -47 36 -78q24 -24 48 -24h94q24 0 48 24q15 15 25 35t12 43q-1 5 -1 15v579h215v-594z" />
    <glyph glyph-name="uniFEBA" horiz-adv-x="2022" 
d="M2052 130h-1034q-5 -92 -29 -161t-60.5 -119.5t-81.5 -84.5t-91 -54q-41 -18 -82 -27q-20 -5 -40 -7t-40 -3h-59q-34 1 -73 7.5t-81.5 20.5t-84.5 40q-38 23 -71.5 56.5t-60 81.5t-43.5 111t-21 145v624l214 -3v-617q3 -63 14 -110t27.5 -81.5t38 -57.5t44.5 -37
q19 -11 39 -17.5t38.5 -9.5t35.5 -3h30q6 0 13 1t15 3q9 2 17.5 4.5t16.5 5.5q28 12 55.5 35t50 59t38 87.5t18.5 120.5v839h214v-122l1 1q72 111 157 143q58 23 118.5 35.5t122.5 16.5q19 1 38 1q43 0 87 -5q61 -7 118 -27q60 -20 111 -53t88.5 -79t60 -106t24.5 -135v-18
q0 -8 1 -16v-217q0 -32 -8 -61.5t-22 -55.5h136v-151zM1019 281h629q23 0 47 24q17 17 27 40.5t10 52.5v202q0 11 -0.5 22.5t-0.5 23.5q-2 50 -14.5 89.5t-34.5 69.5t-51 50t-63 32q-30 10 -64 14q-23 3 -46 3q-12 0 -24 -1q-38 -2 -77 -10.5t-77 -23.5
q-53 -20 -100.5 -51.5t-83 -73.5t-56.5 -93.5t-21 -111.5v-258z" />
    <glyph glyph-name="uniFEBF" horiz-adv-x="1394" 
d="M441 130v-2q-29 -1 -58 -1q-15 0 -30 1q-46 0 -95 2h-288v151h99q23 0 47 24q17 17 27 40.5t10 52.5v616h215v-156q72 111 157 143q58 23 118.5 35.5t122.5 16.5q19 1 38 1q43 0 87 -5q61 -7 118 -27q60 -20 111 -53t88.5 -79t60 -106t24.5 -135v-18q0 -8 1 -16v-217
q0 -52 -20.5 -98t-55.5 -81q-41 -42 -98 -65.5t-125 -23.5h-554zM367 394q0 -30 -7.5 -58.5t-21.5 -54.5h658q23 0 47 24q17 17 27 40.5t10 52.5v202q0 11 -0.5 22.5t-0.5 23.5q-2 50 -14.5 89.5t-34.5 69.5t-51 50t-63 32q-30 10 -64 14q-23 3 -46 3q-12 0 -24 -1
q-38 -2 -77 -10.5t-77 -23.5q-53 -20 -100.5 -51.5t-82.5 -73.5t-55.5 -93.5t-20.5 -111.5v-145h-2zM422 1330q0 23 9 43t24 35t34.5 23.5t41.5 8.5t42 -8.5t35 -23.5t23.5 -35t8.5 -43t-8.5 -42.5t-23.5 -34t-35 -23t-42 -8.5t-41.5 8.5t-34.5 23t-24 34t-9 42.5z" />
    <glyph glyph-name="uniFEC2" horiz-adv-x="1463" 
d="M1493 130h-1393v151h69q23 0 47 24q17 17 27 40.5t10 52.5v969h215v-509q72 111 157 143q58 23 118.5 35.5t122.5 16.5q19 1 38 1q43 0 87 -5q61 -7 118 -27q60 -20 111 -53t88.5 -79t60 -106t24.5 -135v-18q0 -8 1 -16v-217q0 -32 -8 -61.5t-22 -55.5h129v-151zM467 394
q0 -30 -7.5 -58.5t-21.5 -54.5h658q23 0 47 24q17 17 27 40.5t10 52.5v202q0 11 -0.5 22.5t-0.5 23.5q-2 50 -14.5 89.5t-34.5 69.5t-51 50t-63 32q-30 10 -64 14q-23 3 -46 3q-12 0 -24 -1q-38 -2 -77 -10.5t-77 -23.5q-53 -20 -100.5 -51.5t-82.5 -73.5t-55.5 -93.5
t-20.5 -111.5v-145h-2z" />
    <glyph glyph-name="uniFEC4" horiz-adv-x="1363" 
d="M1393 130h-1423v151h99q23 0 47 24q17 17 27 40.5t10 52.5v969h215v-509q72 111 157 143q58 23 118.5 35.5t122.5 16.5q19 1 38 1q43 0 87 -5q61 -7 118 -27q60 -20 111 -53t88.5 -79t60 -106t24.5 -135v-18q0 -8 1 -16v-217q0 -32 -8 -61.5t-22 -55.5h129v-151zM367 394
q0 -30 -7.5 -58.5t-21.5 -54.5h658q23 0 47 24q17 17 27 40.5t10 52.5v202q0 11 -0.5 22.5t-0.5 23.5q-2 50 -14.5 89.5t-34.5 69.5t-51 50t-63 32q-30 10 -64 14q-23 3 -46 3q-12 0 -24 -1q-38 -2 -77 -10.5t-77 -23.5q-53 -20 -100.5 -51.5t-82.5 -73.5t-55.5 -93.5
t-20.5 -111.5v-145h-2z" />
    <glyph glyph-name="uniFEC7" horiz-adv-x="1394" 
d="M441 130v-2q-29 -1 -58 -1q-15 0 -30 1q-46 0 -95 2h-288v151h99q23 0 47 24q17 17 27 40.5t10 52.5v972h215v-512q72 111 157 143q58 23 118.5 35.5t122.5 16.5q19 1 38 1q43 0 87 -5q61 -7 118 -27q60 -20 111 -53t88.5 -79t60 -106t24.5 -135v-18q0 -8 1 -16v-217
q0 -52 -20.5 -98t-55.5 -81q-41 -42 -98 -65.5t-125 -23.5h-554zM367 394q0 -30 -7.5 -58.5t-21.5 -54.5h658q23 0 47 24q17 17 27 40.5t10 52.5v202q0 11 -0.5 22.5t-0.5 23.5q-2 50 -14.5 89.5t-34.5 69.5t-51 50t-63 32q-30 10 -64 14q-23 3 -46 3q-12 0 -24 -1
q-38 -2 -77 -10.5t-77 -23.5q-53 -20 -100.5 -51.5t-82.5 -73.5t-55.5 -93.5t-20.5 -111.5v-145h-2zM569 1324q0 23 9 43t24 35t34.5 23.5t41.5 8.5t42 -8.5t35 -23.5t23.5 -35t8.5 -43t-8.5 -42.5t-23.5 -34t-35 -23t-42 -8.5t-41.5 8.5t-34.5 23t-24 34t-9 42.5z" />
    <glyph glyph-name="uniFECA" horiz-adv-x="1041" 
d="M1071 130h-59q-97 0 -175.5 20t-143 54t-117 80t-95.5 99q-67 -34 -108.5 -89.5t-51.5 -121.5q-3 -20 -3 -40q0 -52 21 -103q14 -33 38 -62.5t57 -52.5q35 -24 82 -41t108 -24q36 -4 78 -4q27 0 56 2q74 4 162 23l63 -143q-122 -26 -226 -31q-31 -1 -60 -1q-70 0 -131 8
q-88 12 -158.5 39t-124.5 65t-91 83t-58 96q-21 48 -27 99q-3 23 -3 46q0 28 4 56q12 86 63 162.5t139 126.5q16 11 35 22.5t40 23.5q-21 34 -40 68t-38 67q-28 51 -55.5 98t-56.5 85l-20 26q15 36 25 54.5t21 33.5q21 28 51 57q40 37 93.5 70.5t116.5 54.5t133 27
q18 2 38 2q51 0 103 -12q38 -9 74 -25t66.5 -39t54.5 -52.5t38 -65.5q17 -43 17 -87q0 -22 -4 -44q-13 -66 -55 -123q-26 -35 -60 -67.5t-72.5 -61.5t-80.5 -56t-83 -51q33 -42 70.5 -79t81.5 -64t96 -42.5t113 -15.5v1h59v-151zM507 711q25 -46 50 -88q60 37 113.5 77.5
t85.5 85.5q24 33 33 70q3 14 3 28q0 23 -9 47q-12 30 -37 50.5t-57 28.5q-20 4 -40 4q-13 0 -26 -1q-34 -5 -66 -18t-61 -32.5t-52 -40.5q-11 -11 -20 -21.5t-17 -21.5q26 -38 50.5 -80.5t49.5 -87.5z" />
    <glyph glyph-name="uniFECF" horiz-adv-x="997" 
d="M897 130h-927v151h215q-22 27 -35.5 58.5t-21 67t-10 75.5t-2.5 84v40q0 21 1 43v1q3 108 37 186.5t88.5 130t124 76.5t143.5 25h1q72 0 140.5 -26t122.5 -77t87 -126.5t33 -173.5h-215q0 58 -14.5 105t-38.5 80t-54.5 51t-62.5 18h-1q-31 0 -61.5 -17t-55.5 -50.5
t-41.5 -84.5t-18.5 -119v-1q-1 -20 -1 -38v-35q0 -70 5.5 -122.5t30.5 -88.5t77 -56t145 -26h309v-151zM333 1331q0 23 9 43t24 35t34.5 23.5t41.5 8.5t42 -8.5t35 -23.5t23.5 -35t8.5 -43t-8.5 -42.5t-23.5 -34t-35 -23t-42 -8.5t-41.5 8.5t-34.5 23t-24 34t-9 42.5z" />
    <glyph glyph-name="uniFED4" horiz-adv-x="1027" 
d="M393 1344q0 23 9 43t24 35t34.5 23.5t41.5 8.5t42 -8.5t35 -23.5t23.5 -35t8.5 -43t-8.5 -42.5t-23.5 -34t-35 -23t-42 -8.5t-41.5 8.5t-34.5 23t-24 34t-9 42.5zM697 1029q44 -22 82.5 -56.5t67.5 -82t46 -108t19 -133.5q1 -59 1 -112q0 -52 -6.5 -97.5t-21 -85
t-41.5 -73.5h213v-151h-1087v151h217q-27 34 -41.5 73.5t-21 85t-6.5 98.5q-1 10 -1 21q0 43 2 90q1 73 18.5 133.5t46.5 108t67.5 82t82.5 56.5q40 19 86.5 29t94.5 10t94.5 -9.5t87.5 -29.5zM698 647q-1 53 -11 95t-27 74.5t-39 54.5t-47 35q-11 6 -26 9t-30 4h-5
q-13 0 -27 -3q-16 -3 -29 -10q-25 -13 -47 -35t-39 -54.5t-27 -74.5t-11 -95q-1 -36 -1 -68q0 -17 1 -32q0 -46 5 -84.5t16 -68.5t31 -51q10 -12 21 -22.5t25.5 -19t34.5 -13.5t49 -5q30 0 50 5t34.5 13.5t25 19t21.5 22.5q20 21 31 51t16 68.5t6 84.5v32q0 32 -1 68z" />
    <glyph glyph-name="uniFEDA" horiz-adv-x="1484" 
d="M1345 1369v-971q0 -10 -1 -15q2 -23 12 -43t25 -35q24 -24 48 -24h85v-151h-84q-57 0 -105.5 16t-87.5 45q-38 -29 -86.5 -45t-105.5 -16h-644q-69 0 -126 23.5t-98 65.5q-35 35 -55.5 81t-20.5 98h-1v376h215v-376q0 -29 10 -52.5t27 -40.5q24 -24 47 -24h647
q24 0 48 24q31 31 36 78v986h215zM951 696l-440 -34l-17 112l160 12q-29 38 -52.5 70t-35.5 63q-11 29 -11 59v5q1 33 21 73q24 51 73 75t110 32q29 3 58 3q21 0 43 -1q51 -5 96 -12l-35 -110q-34 6 -70 10q-17 1 -32 1q-18 0 -34 -2q-20 -2 -34.5 -9t-22.5 -23
q-11 -22 -11 -42q0 -3 1 -5q1 -22 12.5 -44.5t31.5 -47.5t44 -57q5 -6 10 -12.5t10 -12.5l109 8z" />
    <glyph glyph-name="uniFEDF" horiz-adv-x="528" 
d="M428 1367v-969q0 -52 -20.5 -98t-55.5 -81q-41 -42 -98 -65.5t-125 -23.5h-159v151h160q23 0 47 24q17 17 27 40.5t10 52.5v969h214z" />
    <glyph glyph-name="uniFEE4" horiz-adv-x="953" 
d="M983 130h-189q-12 -14 -27 -24q-58 -49 -130 -62q-32 -6 -64 -6q-41 0 -84 10h-3l-309 82h-207v151h118v384q0 67 16 124t43.5 102.5t65.5 79t82 55.5q41 21 85.5 31.5t91.5 10.5h9q42 0 83 -9q45 -10 87 -30q44 -22 82.5 -56.5t67.5 -82t46 -108t19 -133.5v-1l1 -342
v-13q0 -6 -1 -12h117v-151zM304 257l201 -54q32 -11 57 -11q6 0 12 1q28 3 45.5 18.5t25.5 40.5t8 54l-1 341q-1 53 -11 95t-27 74.5t-39 54.5t-47 35q-29 13 -54 13q-26 -2 -54 -14q-50 -26 -83 -85.5t-33 -154.5v-408z" />
    <glyph glyph-name="uniFEEA" horiz-adv-x="1031" 
d="M879 521q0 -12 -0.5 -23.5t-1.5 -22.5v-77h-1q0 -29 10 -52.5t27 -40.5q11 -11 24 -18t25 -7v1h99v-151h-99q-65 0 -119 21t-96 59q-35 -31 -74 -50q-83 -42 -177 -42h-9q-42 0 -83 9q-45 10 -87 30q-44 22 -82.5 56.5t-67.5 82t-46.5 107.5t-18.5 134q-1 43 -1 82v38
q1 56 9.5 104.5t27 90t52.5 76.5q36 36 87 62.5t122 42.5t165 22q54 3 117 3q46 0 97 -2l101 -4v-531zM664 565v343q-125 -1 -195 -17.5t-101 -47.5q-20 -21 -31 -51t-16 -68.5t-5 -84.5q-1 -15 -1 -32q0 -32 1 -68q1 -53 11 -95t27 -74.5t39 -54.5t47 -35q29 -13 53 -13
q25 1 55 14q43 23 74.5 72t39.5 127v85h2z" />
    <glyph glyph-name="uniFEF0" horiz-adv-x="1254" 
d="M368 463q-52 -153 -52 -270v-17q4 -123 50 -208q26 -48 60.5 -82t76.5 -57q39 -21 81.5 -32t84.5 -12h10q70 0 134 26q68 27 114 82q21 24 34 53q11 24 15 52q1 8 1 16q0 20 -6 40q-8 31 -29 63t-61 66q-32 27 -77.5 54t-107.5 55l111 128l4 -1l2 -1q32 -13 61 -26
t56 -25q41 -19 78.5 -34.5t78 -27t88 -18t109.5 -6.5v-151q-34 0 -64 1.5t-57 3.5q7 -14 12 -27.5t8 -27.5q8 -33 8 -63q0 -16 -2 -31q-6 -45 -23 -84q-21 -46 -54 -84q-39 -47 -89 -81.5t-108.5 -57.5t-121.5 -34q-59 -10 -119 -10h-11q-76 2 -150.5 20.5t-141.5 55.5
q-64 35 -117 85.5t-89 118.5q-28 52 -44.5 114.5t-18.5 135.5v18q0 65 12 138q13 83 46 177z" />
    <glyph glyph-name="uniFEF5" horiz-adv-x="1045" 
d="M399 1367v-1086h247q23 0 47 24q17 17 27.5 40.5t10.5 52.5v969h214v-969q0 -52 -20.5 -98t-55.5 -81q-42 -42 -99 -65.5t-125 -23.5h-611v151h151v1086h214zM12 1557l417 60l-21 -107l-417 -60z" />
    <glyph glyph-name="uniFEF9" horiz-adv-x="1016" 
d="M402 1367v-1086h247q23 0 47 24q17 17 27.5 40.5t10.5 52.5v969h214v-969q0 -52 -20.5 -98t-55.5 -81q-42 -42 -99 -65.5t-125 -23.5h-611v151h151v1086h214zM351 -229l-311 -26l-12 85l89 5q-18 24 -30 39t-16 29q-3 8 -3 17q0 6 1 13q3 15 15 40q14 32 44 46.5t68 19.5
q19 2 38 2h25q31 -3 58 -8l-21 -81q-21 4 -43 6q-11 1 -21 1t-20 -1q-36 -4 -41 -15q-2 -4 -2 -9q0 -8 7 -18q9 -16 27 -34t29 -36l107 10z" />
    <glyph glyph-name="uniFDF2" horiz-adv-x="2106" 
d="M2006 398q0 -52 -20.5 -98t-55.5 -81q-41 -42 -98 -65.5t-125 -23.5h-179q-57 0 -105.5 16t-87.5 45q-38 -29 -86.5 -45t-105.5 -16h-181q-65 0 -119 21t-96 59q-35 -31 -74 -50q-83 -42 -177 -42h-9q-42 0 -83 9q-45 10 -87 30q-44 22 -82.5 56.5t-67.5 82t-46.5 107.5
t-18.5 134q-1 43 -1 82v38q1 56 9.5 104.5t27 90t52.5 76.5q36 36 87 62.5t122 42.5t165 22q54 3 117 3q46 0 97 -2l101 -4v-531q0 -12 -0.5 -23.5t-1.5 -22.5v-77h-1q0 -29 10 -52.5t27 -40.5q11 -11 24 -18t25 -7v1h182q24 0 48 24q31 31 36 78v787h215v-772q0 -10 -1 -15
q2 -23 12 -43t25 -35q24 -24 48 -24h181q23 0 47 24q17 17 27 40.5t10 52.5v969h214v-969zM664 908q-125 -1 -195 -17.5t-101 -47.5q-20 -21 -31 -51t-16 -68.5t-5 -84.5q-1 -15 -1 -32q0 -32 1 -68q1 -53 11 -95t27 -74.5t39 -54.5t47 -35q29 -13 53 -13q25 1 55 14
q43 23 74.5 72t39.5 127v85h2v343zM1451 1366v182h96v-199q0 -24 -7 -39t-18.5 -23.5t-26 -12t-28.5 -3.5h-262q-39 0 -59 18t-20 60v199h95v-182h68v182h95v-182h67z" />
  </font>
</defs>
</svg>
